<?xml version="1.0" standalone="no"?>
<!DOCTYPE svg PUBLIC "-//W3C//DTD SVG 1.1//EN" "http://www.w3.org/Graphics/SVG/1.1/DTD/svg11.dtd" >
<svg xmlns="http://www.w3.org/2000/svg" xmlns:xlink="http://www.w3.org/1999/xlink" version="1.1">
<metadata>
Created by FontForge 20161003 at Fri Dec  9 07:51:01 2016
 By www-data
</metadata>
<defs>
<font id="FontAwesome" horiz-adv-x="219" >
  <font-face 
    font-family="FontAwesome"
    font-weight="400"
    font-stretch="normal"
    units-per-em="256"
    panose-1="0 0 0 0 0 0 0 0 0 0"
    ascent="219"
    descent="-37"
    bbox="-0.5 -37.0833 329.571 220"
    underline-thickness="0"
    underline-position="0"
    unicode-range="U+0020-F500"
  />
<missing-glyph horiz-adv-x="128" 
 />
    <glyph glyph-name=".notdef" horiz-adv-x="128" 
 />
    <glyph glyph-name="glyph1" horiz-adv-x="0" 
 />
    <glyph glyph-name="glyph2" horiz-adv-x="85" 
 />
    <glyph glyph-name="space" unicode=" " horiz-adv-x="64" 
 />
    <glyph glyph-name="dieresis" unicode="&#xa8;" horiz-adv-x="256" 
 />
    <glyph glyph-name="copyright" unicode="&#xa9;" horiz-adv-x="256" 
 />
    <glyph glyph-name="registered" unicode="&#xae;" horiz-adv-x="256" 
 />
    <glyph glyph-name="acute" unicode="&#xb4;" horiz-adv-x="256" 
 />
    <glyph glyph-name="AE" unicode="&#xc6;" horiz-adv-x="256" 
 />
    <glyph glyph-name="Oslash" unicode="&#xd8;" horiz-adv-x="256" 
 />
    <glyph glyph-name="trademark" unicode="&#x2122;" horiz-adv-x="256" 
 />
    <glyph glyph-name="infinity" unicode="&#x221e;" horiz-adv-x="256" 
 />
    <glyph glyph-name="notequal" unicode="&#x2260;" horiz-adv-x="256" 
 />
    <glyph glyph-name="uniF000" unicode="&#xf000;" horiz-adv-x="256" 
d="M243 193q0 -5 -6 -11l-91 -91v-109h46q4 0 6.5 -3t2.5 -6.5t-2.5 -6.5t-6.5 -3h-128q-4 0 -6.5 3t-2.5 6.5t2.5 6.5t6.5 3h46v109l-91 91q-6 6 -6 11q0 3 2.5 5t5.5 2.5t6 0.5h202q3 0 6 -0.5t5.5 -2.5t2.5 -5z" />
    <glyph glyph-name="uniF001" unicode="&#xf001;" 
d="M219 187v-160q0 -7 -4.5 -12.5t-12 -8.5t-15 -4.5t-14 -1.5t-13.5 1.5t-14.5 4.5t-12.5 8.5t-5 13t5 13t12.5 8.5t14.5 4.5t14 1.5q15 0 27 -6v77l-110 -34v-101q0 -7 -4.5 -12.5t-12 -9t-15 -5t-14 -1.5t-13.5 1.5t-14.5 5t-12.5 9t-5 12.5t5 12.5t12.5 8.5t14.5 4.5
t14 1.5q15 0 27 -5v138q0 4 3 8t7 5l119 37q2 1 4 0q6 0 9.5 -4t3.5 -10z" />
    <glyph glyph-name="uniF002" unicode="&#xf002;" horiz-adv-x="237" 
d="M165 100.5q0 26.5 -19 45.5t-45.5 19t-45 -19t-18.5 -45.5t18.5 -45t45 -18.5t45.5 18.5t19 45zM238 -18q0 -7 -5.5 -13t-13.5 -6t-12 6l-49 49q-26 -18 -57 -18q-20 0 -39 8t-32.5 21.5t-21.5 32t-8 39t8 39t21.5 32t32 21.5t39 8t39 -8t32 -21.5t21.5 -32t8 -38.5
q0 -31 -18 -57l49 -49q6 -5 6 -13z" />
    <glyph glyph-name="uniF003" unicode="&#xf003;" horiz-adv-x="256" 
d="M238 5v109q-5 -5 -10 -9q-38 -29 -61 -48q-7 -6 -11.5 -9.5t-12.5 -7t-15 -3.5v0v0q-7 0 -15 3.5t-12.5 6.5t-11.5 10q-23 19 -61 48q-5 4 -10 9v-109q0 -2 1.5 -3.5t3.5 -1.5h210q2 0 3.5 1.5t1.5 3.5zM238 155v1v2.5v1.5t-0.5 1.5t-1 1.5t-1.5 1.5t-2 0.5h-210
q-2 0 -3.5 -1.5t-1.5 -3.5q0 -24 21 -41q28 -22 58 -45q1 -1 5 -4.5t6.5 -5t6 -4.5t7 -4t6.5 -1v0v0q3 0 6.5 1t7 4t6 4.5t7 5t4.5 4.5q30 24 58 45q8 6 14.5 17t6.5 19zM256 160v-155q0 -9 -6.5 -16t-16.5 -7h-210q-9 0 -16 6.5t-7 16.5v155q0 9 6.5 16t16.5 7h210
q9 0 16 -7t7 -16z" />
    <glyph glyph-name="uniF004" unicode="&#xf004;" horiz-adv-x="256" 
d="M128 -18q-4 0 -6 2l-89 86l-4 4t-8.5 9.5t-9.5 13.5t-7.5 17.5t-3.5 19.5q0 31 18 49t50 18q9 0 18.5 -3t17 -8t13.5 -10t11 -10q5 5 11 10t13.5 10t17 8t18.5 3q32 0 50 -17.5t18 -49.5t-33 -64l-89 -86q-2 -2 -6 -2z" />
    <glyph glyph-name="uniF005" unicode="&#xf005;" horiz-adv-x="237" 
d="M238 127q0 -3 -4 -7l-52 -50l12 -72q0 -1 1 -3q0 -3 -1.5 -5t-4.5 -2t-6 2l-64 34l-64 -34q-3 -2 -6 -2t-4.5 2t-1.5 5v3l13 72l-52 50q-4 4 -4 7q0 5 8 7l72 10l32 65q3 6 7 6t7 -6l32 -65l72 -10q8 -2 8 -7z" />
    <glyph glyph-name="uniF006" unicode="&#xf006;" horiz-adv-x="237" 
d="M162 76l44 42l-60 9l-27 55l-27 -55l-60 -9l43 -42l-10 -60l54 28l54 -28zM238 127q0 -3 -4 -7l-52 -50l12 -72q0 -1 1 -3q0 -7 -6 -7q-3 0 -6 2l-64 34l-64 -34q-3 -2 -6 -2t-4.5 2t-1.5 5v3l13 72l-52 50q-4 4 -4 7q0 5 8 7l72 10l32 65q3 6 7 6t7 -6l32 -65l72 -10
q8 -2 8 -7z" />
    <glyph glyph-name="uniF007" unicode="&#xf007;" horiz-adv-x="182" 
d="M183 20q0 -16 -9 -27t-22 -11h-122q-13 0 -21.5 11t-8.5 27q0 12 1 22.5t4.5 21.5t8.5 19t13.5 13t19.5 5q19 -18 44.5 -18.5t44.5 18.5q11 0 19.5 -5t13.5 -13t8 -19t4.5 -21.5t1.5 -22.5zM146 146.5q0 -22.5 -16 -39t-38.5 -16.5t-38.5 16.5t-16 39t16 38.5t38.5 16
t38.5 -16t16 -38.5z" />
    <glyph glyph-name="uniF008" unicode="&#xf008;" horiz-adv-x="274" 
d="M55 -9v18q0 4 -3 6.5t-6 2.5h-19q-4 0 -6.5 -2.5t-2.5 -6.5v-18q0 -4 3 -6.5t6 -2.5h19q4 0 6.5 2.5t2.5 6.5zM55 46v18q0 4 -3 6.5t-6 2.5h-19q-4 0 -6.5 -2.5t-2.5 -6.5v-18q0 -4 3 -6.5t6 -2.5h19q4 0 6.5 2.5t2.5 6.5zM55 101v18q0 4 -3 6.5t-6 2.5h-19
q-4 0 -6.5 -2.5t-2.5 -6.5v-18q0 -4 3 -7t6 -3h19q4 0 6.5 3t2.5 7zM201 -9v73q0 4 -2.5 6.5t-6.5 2.5h-110q-4 0 -6.5 -2.5t-2.5 -6.5v-73q0 -4 3 -6.5t6 -2.5h110q4 0 6.5 2.5t2.5 6.5zM55 155v19q0 4 -3 6.5t-6 2.5h-19q-4 0 -6.5 -3t-2.5 -6v-19q0 -4 3 -6.5t6 -2.5h19
q4 0 6.5 2.5t2.5 6.5zM256 -9v18q0 4 -2.5 6.5t-6.5 2.5h-18q-4 0 -7 -2.5t-3 -6.5v-18q0 -4 3 -6.5t7 -2.5h18q4 0 6.5 2.5t2.5 6.5zM201 101v73q0 4 -2.5 6.5t-6.5 2.5h-110q-4 0 -6.5 -3t-2.5 -6v-73q0 -4 3 -7t6 -3h110q4 0 6.5 3t2.5 7zM256 46v18q0 4 -2.5 6.5
t-6.5 2.5h-18q-4 0 -7 -2.5t-3 -6.5v-18q0 -4 3 -6.5t7 -2.5h18q4 0 6.5 2.5t2.5 6.5zM256 101v18q0 4 -2.5 6.5t-6.5 2.5h-18q-4 0 -7 -2.5t-3 -6.5v-18q0 -4 3 -7t7 -3h18q4 0 6.5 3t2.5 7zM256 155v19q0 4 -2.5 6.5t-6.5 2.5h-18q-4 0 -7 -3t-3 -6v-19q0 -4 3 -6.5
t7 -2.5h18q4 0 6.5 2.5t2.5 6.5zM274 178v-192q0 -9 -6.5 -16t-16.5 -7h-228q-9 0 -16 7t-7 16v192q0 9 6.5 16t16.5 7h228q9 0 16 -7t7 -16z" />
    <glyph glyph-name="uniF009" unicode="&#xf009;" horiz-adv-x="237" 
d="M110 73v-55q0 -7 -5.5 -12.5t-13.5 -5.5h-73q-7 0 -12.5 5.5t-5.5 12.5v55q0 7 5.5 12.5t12.5 5.5h73q7 0 13 -5.5t6 -12.5zM110 183v-55q0 -7 -5.5 -12.5t-13.5 -5.5h-73q-7 0 -12.5 5.5t-5.5 12.5v55q0 7 5.5 12.5t12.5 5.5h73q7 0 13 -5.5t6 -12.5zM238 73v-55
q0 -7 -5.5 -12.5t-13.5 -5.5h-73q-7 0 -12.5 5.5t-5.5 12.5v55q0 7 5.5 12.5t12.5 5.5h73q7 0 13 -5.5t6 -12.5zM238 183v-55q0 -7 -5.5 -12.5t-13.5 -5.5h-73q-7 0 -12.5 5.5t-5.5 12.5v55q0 7 5.5 12.5t12.5 5.5h73q7 0 13 -5.5t6 -12.5z" />
    <glyph glyph-name="uniF00A" unicode="&#xf00a;" horiz-adv-x="256" 
d="M73 41v-27q0 -6 -4 -10t-10 -4h-45q-6 0 -10 4t-4 10v27q0 6 4 10t10 4h45q6 0 10 -4t4 -10zM73 114v-27q0 -6 -4 -10t-10 -4h-45q-6 0 -10 4t-4 10v27q0 6 4 10t10 4h45q6 0 10 -4t4 -10zM165 41v-27q0 -6 -4 -10t-10 -4h-46q-6 0 -10 4t-4 10v27q0 6 4 10t10 4h46
q6 0 10 -4t4 -10zM73 187v-27q0 -6 -4 -10t-10 -4h-45q-6 0 -10 4t-4 10v27q0 6 4 10t10 4h45q6 0 10 -4t4 -10zM165 114v-27q0 -6 -4 -10t-10 -4h-46q-6 0 -10 4t-4 10v27q0 6 4 10t10 4h46q6 0 10 -4t4 -10zM256 41v-27q0 -6 -4 -10t-10 -4h-45q-6 0 -10 4t-4 10v27
q0 6 4 10t10 4h45q6 0 10 -4t4 -10zM165 187v-27q0 -6 -4 -10t-10 -4h-46q-6 0 -10 4t-4 10v27q0 6 4 10t10 4h46q6 0 10 -4t4 -10zM256 114v-27q0 -6 -4 -10t-10 -4h-45q-6 0 -10 4t-4 10v27q0 6 4 10t10 4h45q6 0 10 -4t4 -10zM256 187v-27q0 -6 -4 -10t-10 -4h-45
q-6 0 -10 4t-4 10v27q0 6 4 10t10 4h45q6 0 10 -4t4 -10z" />
    <glyph glyph-name="uniF00B" unicode="&#xf00b;" horiz-adv-x="256" 
d="M73 41v-27q0 -6 -4 -10t-10 -4h-45q-6 0 -10 4t-4 10v27q0 6 4 10t10 4h45q6 0 10 -4t4 -10zM73 114v-27q0 -6 -4 -10t-10 -4h-45q-6 0 -10 4t-4 10v27q0 6 4 10t10 4h45q6 0 10 -4t4 -10zM256 41v-27q0 -6 -4 -10t-10 -4h-137q-6 0 -10 4t-4 10v27q0 6 4 10t10 4h137
q6 0 10 -4t4 -10zM73 187v-27q0 -6 -4 -10t-10 -4h-45q-6 0 -10 4t-4 10v27q0 6 4 10t10 4h45q6 0 10 -4t4 -10zM256 114v-27q0 -6 -4 -10t-10 -4h-137q-6 0 -10 4t-4 10v27q0 6 4 10t10 4h137q6 0 10 -4t4 -10zM256 187v-27q0 -6 -4 -10t-10 -4h-137q-6 0 -10 4t-4 10v27
q0 6 4 10t10 4h137q6 0 10 -4t4 -10z" />
    <glyph glyph-name="uniF00C" unicode="&#xf00c;" horiz-adv-x="256" 
d="M239 138.5q0 -5.5 -4 -9.5l-104 -104l-19 -19q-4 -4 -10 -4t-10 4l-19 19l-52 52q-4 4 -4 10t4 10l20 19q4 4 9.5 4t9.5 -4l42 -42l94 94q4 4 9.5 4t9.5 -4l20 -20q4 -4 4 -9.5z" />
    <glyph glyph-name="uniF00D" unicode="&#xf00d;" horiz-adv-x="201" 
d="M185 30.5q0 -5.5 -4 -9.5l-19 -20q-4 -4 -9.5 -4t-9.5 4l-42 42l-42 -42q-4 -4 -10 -4t-10 4l-19 20q-4 4 -4 9.5t4 9.5l42 42l-42 42q-4 4 -4 10t4 10l19 19q4 4 10 4t10 -4l42 -42l42 42q4 4 9.5 4t9.5 -4l19 -19q4 -4 4 -10t-4 -10l-42 -42l42 -42q4 -4 4 -9.5z" />
    <glyph glyph-name="uniF00E" unicode="&#xf00e;" horiz-adv-x="237" 
d="M146 105v-9q0 -2 -1 -3.5t-3 -1.5h-32v-32q0 -2 -1.5 -3t-3.5 -1h-9q-2 0 -3.5 1.5t-1.5 2.5v32h-32q-2 0 -3 1.5t-1 3.5v9q0 2 1.5 3.5t2.5 1.5h32v32q0 2 1.5 3t3.5 1h9q2 0 3.5 -1t1.5 -3v-32h32q2 0 3 -1.5t1 -3.5zM165 100.5q0 26.5 -19 45.5t-45.5 19t-45 -19
t-18.5 -45.5t18.5 -45t45 -18.5t45.5 18.5t19 45zM238 -18.5q0 -7.5 -5.5 -13t-13.5 -5.5t-12 6l-49 49q-26 -18 -57 -18q-20 0 -39 8t-32.5 21.5t-21.5 32t-8 39t8 39t21.5 32t32 21.5t39 8t39 -8t32 -21.5t21.5 -32t8 -38.5q0 -31 -18 -57l49 -49q6 -6 6 -13.5z" />
    <glyph glyph-name="uniF010" unicode="&#xf010;" horiz-adv-x="237" 
d="M146 105v-9q0 -2 -1 -3.5t-3 -1.5h-83q-2 0 -3 1.5t-1 3.5v9q0 2 1.5 3.5t2.5 1.5h83q2 0 3 -1.5t1 -3.5zM165 100.5q0 26.5 -19 45.5t-45.5 19t-45 -19t-18.5 -45.5t18.5 -45t45 -18.5t45.5 18.5t19 45zM238 -18.5q0 -7.5 -5.5 -13t-13.5 -5.5t-12 6l-49 49
q-26 -18 -57 -18q-20 0 -39 8t-32.5 21.5t-21.5 32t-8 39t8 39t21.5 32t32 21.5t39 8t39 -8t32 -21.5t21.5 -32t8 -38.5q0 -31 -18 -57l49 -49q6 -6 6 -13.5z" />
    <glyph glyph-name="uniF011" unicode="&#xf011;" 
d="M219 91q0 -22 -8.5 -42t-23 -35t-35 -23.5t-43 -8.5t-42.5 8.5t-35 23.5t-23.5 35t-8.5 42q0 26 11.5 49t32.5 39q6 5 13.5 4t11.5 -8q5 -6 4 -13.5t-7 -11.5q-14 -11 -21.5 -26t-7.5 -33q0 -15 5.5 -28t15.5 -23t23.5 -16t28.5 -6t28.5 6t23 16t15.5 23.5t6 27.5
q0 17 -7.5 32.5t-21.5 26.5q-6 5 -7.5 12t3.5 13q4 6 12 7.5t14 -3.5q21 -16 32 -39t11 -49zM128 201v-91q0 -7 -5.5 -13t-13 -6t-13 5.5t-5.5 13.5v91q0 7 5.5 12.5t13 5.5t13 -5.5t5.5 -12.5z" />
    <glyph glyph-name="uniF012" unicode="&#xf012;" horiz-adv-x="256" 
d="M37 14v-28q0 -2 -1.5 -3t-3.5 -1h-27q-2 0 -3.5 1t-1.5 3v28q0 2 1.5 3t3.5 1h27q2 0 3.5 -1t1.5 -3zM91 32v-46q0 -2 -1 -3t-3 -1h-28q-2 0 -3 1t-1 3v46q0 2 1 3.5t3 1.5h28q2 0 3 -1.5t1 -3.5zM146 69v-83q0 -2 -1 -3t-3 -1h-28q-2 0 -3 1t-1 3v83q0 2 1 3t3 1h28
q2 0 3 -1t1 -3zM201 123v-137q0 -2 -1 -3t-3 -1h-28q-2 0 -3 1t-1 3v137q0 2 1 3.5t3 1.5h28q2 0 3 -1.5t1 -3.5zM256 197v-211q0 -2 -1.5 -3t-3.5 -1h-27q-2 0 -3.5 1t-1.5 3v211q0 2 1.5 3t3.5 1h27q2 0 3.5 -1t1.5 -3z" />
    <glyph glyph-name="uniF013" unicode="&#xf013;" 
d="M146 91.5q0 15.5 -10.5 26t-25.5 10.5t-26 -10.5t-11 -26t11 -26t26 -10.5t25.5 10.5t10.5 26zM219 107v-32q0 -2 -1 -3.5t-3 -1.5l-26 -4q-3 -8 -6 -13q5 -7 16 -20q1 -2 1 -3.5t-1 -2.5q-4 -5 -14.5 -15.5t-13.5 -10.5q-2 0 -3 1l-20 16q-6 -3 -13 -6q-2 -19 -4 -26
q-1 -4 -5 -4h-32q-2 0 -3.5 1t-1.5 3l-4 26q-7 2 -13 6l-20 -16q-1 -1 -4 -1q-2 0 -3 2q-18 16 -24 24q-1 1 -1 3t1 3q2 3 7.5 9.5t7.5 10.5q-4 7 -6 14l-26 4q-2 0 -3 1.5t-1 3.5v32q0 2 1 3t3 2l26 4q2 7 6 13l-15 20q-1 2 -2 3q0 1 2 3q4 5 14 15.5t13 10.5q2 0 4 -2
l20 -15q6 3 13 6q2 19 4 26q1 4 5 4h32q2 0 3.5 -1t1.5 -3l4 -26q7 -2 13 -6l20 16q1 1 3 1t4 -2q18 -17 23 -24q1 -1 1 -3t-1 -3q-2 -3 -7 -9.5t-8 -10.5q4 -7 6 -14l26 -4q2 0 3 -1.5t1 -3.5z" />
    <glyph glyph-name="uniF014" unicode="&#xf014;" horiz-adv-x="201" 
d="M73 114v-82q0 -2 -1 -3.5t-3 -1.5h-10q-2 0 -3 1.5t-1 3.5v82q0 2 1 3.5t3 1.5h10q2 0 3 -1.5t1 -3.5zM110 114v-82q0 -2 -1.5 -3.5t-3.5 -1.5h-9q-2 0 -3.5 1.5t-1.5 3.5v82q0 2 1.5 3.5t3.5 1.5h9q2 0 3.5 -1.5t1.5 -3.5zM146 114v-82q0 -2 -1 -3.5t-3 -1.5h-9
q-2 0 -3.5 1.5t-1.5 3.5v82q0 2 1.5 3.5t3.5 1.5h9q2 0 3 -1.5t1 -3.5zM165 11v135h-128v-135q0 -3 1 -6t2 -4l1 -1h119l2 1q1 1 2 4t1 6zM69 165h64l-7 16q-1 1 -3 2h-45q-1 0 -2 -2zM201 160v-9q0 -2 -1 -3.5t-3 -1.5h-14v-135q0 -12 -7 -20.5t-16 -8.5h-119q-9 0 -16 8
t-7 20v136h-13q-2 0 -3.5 1.5t-1.5 3.5v9q0 2 1.5 3.5t3.5 1.5h44l10 23q2 5 7.5 9t11.5 4h45q6 0 11.5 -3.5t7.5 -9.5l10 -23h45q2 0 3 -1.5t1 -3.5z" />
    <glyph glyph-name="uniF015" unicode="&#xf015;" horiz-adv-x="237" 
d="M201 78v-69q0 -4 -2.5 -6.5t-6.5 -2.5h-55v55h-36v-55h-55q-4 0 -6.5 2.5t-2.5 6.5v69v0v1l82 67l82 -67v-1zM233 88l-9 -11q-1 -1 -3 -2v0q-2 0 -3 1l-99 83l-99 -83q-2 -1 -3 -1q-2 0 -3 2l-9 11q-1 1 -1 3t1 3l103 86q5 4 11 3.5t11 -3.5l35 -30v28q0 2 1 3.5t3 1.5
h28q2 0 3 -1.5t1 -3.5v-58l31 -26q1 -1 1.5 -3t-0.5 -3z" />
    <glyph glyph-name="uniF016" unicode="&#xf016;" 
d="M210 165q4 -4 6.5 -11t2.5 -12v-165q0 -6 -4 -10t-9 -4h-192q-6 0 -10 4t-4 10v229q0 6 4 9.5t10 3.5h128q6 0 12.5 -2.5t10.5 -6.5zM146 200v-54h54q-1 4 -3 6l-45 45q-2 2 -6 3zM201 -18v146h-59q-6 0 -10 4t-4 10v59h-110v-219h183z" />
    <glyph glyph-name="uniF017" unicode="&#xf017;" 
d="M128 142v-64q0 -2 -1.5 -3.5t-3.5 -1.5h-45q-2 0 -3.5 1.5t-1.5 3.5v9q0 2 1.5 3t3.5 1h32v51q0 2 1 3t3 1h9q2 0 3.5 -1t1.5 -3zM187 91.5q0 21.5 -10 39t-28 28t-39 10.5t-39 -10.5t-28.5 -28t-10.5 -39t10.5 -39t28.5 -28t39 -10.5t39 10.5t28 28t10 39zM219 91.5
q0 -29.5 -14.5 -55t-39.5 -40t-55 -14.5t-55.5 14.5t-40 40t-14.5 55t14.5 55t40 40t55.5 14.5t55 -14.5t39.5 -40t14.5 -55z" />
    <glyph glyph-name="uniF018" unicode="&#xf018;" horiz-adv-x="274" 
d="M159 77v1l-4 45q0 2 -1.5 3.5t-3.5 1.5h-26q-2 0 -3.5 -1.5t-1.5 -3.5l-3 -45v-1q0 -2 1 -3t3 -1h35q2 0 3 1t1 3zM267 10q0 -10 -6 -10h-101q2 0 3 1.5t1 3.5l-3 36q0 2 -1.5 3.5t-2.5 1.5h-39q-2 0 -3.5 -1.5t-1.5 -3.5l-3 -36q0 -2 1 -3.5t3 -1.5h-100q-7 0 -7 10
q0 8 4 17l59 149q1 3 4 5t6 2h48q-2 0 -3.5 -1.5t-1.5 -3.5l-2 -27q0 -2 1 -3.5t3 -1.5h24q2 0 3 1.5t1 3.5l-2 27q0 2 -1.5 3.5t-3.5 1.5h49q3 0 5.5 -2t3.5 -5l59 -149q4 -9 4 -17z" />
    <glyph glyph-name="uniF019" unicode="&#xf019;" horiz-adv-x="237" 
d="M183 27.5q0 3.5 -3 6.5t-6.5 3t-6 -3t-2.5 -6.5t2.5 -6.5t6 -3t6.5 3t3 6.5zM219 27.5q0 3.5 -2.5 6.5t-6 3t-6.5 -3t-3 -6.5t3 -6.5t6.5 -3t6 3t2.5 6.5zM238 59v-45q0 -6 -4 -10t-10 -4h-210q-6 0 -10 4t-4 10v45q0 6 4 10t10 4h66l19 -19q8 -8 19.5 -8t19.5 8l20 19
h66q6 0 10 -4t4 -10zM191 141q2 -6 -2 -10l-64 -64q-3 -3 -6.5 -3t-6.5 3l-64 64q-4 4 -2 10t9 5h36v64q0 4 3 6.5t7 2.5h36q4 0 6.5 -2.5t2.5 -6.5v-64h37q6 1 8 -5z" />
    <glyph glyph-name="uniF01A" unicode="&#xf01a;" 
d="M160 87q0 -2 -1 -4l-46 -45q-2 -1 -3.5 -1t-3.5 1l-45 46q-2 2 -1 5t4 2h27v51q0 2 1.5 3t3.5 1h27q2 0 3.5 -1t1.5 -3v-51h27q2 0 3.5 -1t1.5 -3zM110 169q-21 0 -39 -10.5t-28.5 -28t-10.5 -39t10.5 -39t28.5 -28t39 -10.5t39 10.5t28 28t10 39t-10 39t-28 28t-39 10.5
zM219 91.5q0 -29.5 -14.5 -55t-39.5 -40t-55 -14.5t-55.5 14.5t-40 40t-14.5 55t14.5 55t40 40t55.5 14.5t55 -14.5t39.5 -40t14.5 -55z" />
    <glyph glyph-name="uniF01B" unicode="&#xf01b;" 
d="M160 94q-1 -3 -5 -3h-27v-50q0 -2 -1.5 -3t-3.5 -1h-27q-2 0 -3.5 1t-1.5 3v50h-27q-2 0 -3.5 1.5t-1.5 3.5t2 3l45 46q2 1 3.5 1t3.5 -1l46 -46q2 -2 1 -5zM110 169q-21 0 -39 -10.5t-28.5 -28t-10.5 -39t10.5 -39t28.5 -28t39 -10.5t39 10.5t28 28t10 39t-10 39t-28 28
t-39 10.5zM219 91.5q0 -29.5 -14.5 -55t-39.5 -40t-55 -14.5t-55.5 14.5t-40 40t-14.5 55t14.5 55t40 40t55.5 14.5t55 -14.5t39.5 -40t14.5 -55z" />
    <glyph glyph-name="uniF01C" unicode="&#xf01c;" 
d="M146 82h45v1v2l-31 70h-101l-30 -70l-1 -1v-2h45l14 -27h46zM219 78v-69q0 -4 -2.5 -6.5t-6.5 -2.5h-201q-4 0 -6.5 2.5t-2.5 6.5v69q0 9 4 18l34 78q1 4 5 6.5t7 2.5h119q4 0 7.5 -2.5t5.5 -6.5l34 -78q3 -9 3 -18z" />
    <glyph glyph-name="uniF01D" unicode="&#xf01d;" 
d="M169 91.5q0 -5.5 -4 -7.5l-78 -46q-2 -1 -5 -1q-2 0 -4 1q-5 3 -5 8v91q0 5 5 8t9 0l78 -46q4 -2 4 -7.5zM187 91.5q0 21.5 -10 39t-28 28t-39 10.5t-39 -10.5t-28.5 -28t-10.5 -39t10.5 -39t28.5 -28t39 -10.5t39 10.5t28 28t10 39zM219 91.5q0 -29.5 -14.5 -55
t-39.5 -40t-55 -14.5t-55.5 14.5t-40 40t-14.5 55t14.5 55t40 40t55.5 14.5t55 -14.5t39.5 -40t14.5 -55z" />
    <glyph glyph-name="uniF01E" unicode="&#xf01e;" 
d="M219 183v-64q0 -4 -2.5 -6.5t-6.5 -2.5h-64q-6 0 -8 5q-2 6 2 10l20 20q-21 20 -50 20q-15 0 -28.5 -6t-23.5 -16t-15.5 -23.5t-5.5 -28t5.5 -28t15.5 -23.5t23.5 -16t28.5 -6q17 0 32 7.5t25 21.5q1 1 4 1q2 0 3 -1l20 -20q1 -1 1 -2.5t-1 -3.5q-16 -19 -38 -29t-46 -10
q-22 0 -42.5 8.5t-35.5 23.5t-23.5 35t-8.5 42.5t8.5 42.5t23.5 35t35 23.5t43 8.5q21 0 40.5 -8t34.5 -22l19 18q4 4 10 2q5 -2 5 -8z" />
    <glyph glyph-name="uniF021" unicode="&#xf021;" 
d="M216 69v-1q-9 -38 -38.5 -62t-68.5 -24q-21 0 -40.5 7.5t-34.5 22.5l-18 -18q-3 -3 -7 -3t-6.5 2.5t-2.5 6.5v64q0 4 2.5 6.5t6.5 2.5h64q4 0 6.5 -2.5t2.5 -6.5t-2 -6l-20 -20q10 -9 23 -14.5t27 -5.5q19 0 35.5 9.5t26.5 25.5q2 2 8 17q1 3 4 3h27q2 0 3.5 -1t1.5 -3z
M219 183v-64q0 -4 -2.5 -6.5t-6.5 -2.5h-64q-4 0 -6.5 2.5t-2.5 6.5t3 6l20 20q-21 20 -50 20q-19 0 -36 -9.5t-27 -25.5q-2 -2 -7 -17q-1 -3 -4 -3h-29q-2 0 -3 1t-1 3v1q9 38 38 62t69 24q21 0 40.5 -8t34.5 -22l19 18q3 3 6.5 3t6 -2.5t2.5 -6.5z" />
    <glyph glyph-name="uniF022" unicode="&#xf022;" horiz-adv-x="256" 
d="M55 50v-9q0 -2 -1.5 -3t-3.5 -1h-9q-2 0 -3 1t-1 3v9q0 2 1 3.5t3 1.5h9q2 0 3.5 -1.5t1.5 -3.5zM55 87v-9q0 -2 -1.5 -3.5t-3.5 -1.5h-9q-2 0 -3 1.5t-1 3.5v9q0 2 1 3t3 1h9q2 0 3.5 -1t1.5 -3zM55 123v-9q0 -2 -1.5 -3t-3.5 -1h-9q-2 0 -3 1t-1 3v9q0 2 1 3.5t3 1.5h9
q2 0 3.5 -1.5t1.5 -3.5zM219 50v-9q0 -2 -1 -3t-3 -1h-137q-2 0 -3.5 1t-1.5 3v9q0 2 1.5 3.5t3.5 1.5h137q2 0 3 -1.5t1 -3.5zM219 87v-9q0 -2 -1 -3.5t-3 -1.5h-137q-2 0 -3.5 1.5t-1.5 3.5v9q0 2 1.5 3t3.5 1h137q2 0 3 -1t1 -3zM219 123v-9q0 -2 -1 -3t-3 -1h-137
q-2 0 -3.5 1t-1.5 3v9q0 2 1.5 3.5t3.5 1.5h137q2 0 3 -1.5t1 -3.5zM238 23v119q0 2 -1.5 3t-3.5 1h-210q-2 0 -3.5 -1t-1.5 -3v-119q0 -2 1.5 -3.5t3.5 -1.5h210q2 0 3.5 1.5t1.5 3.5zM256 178v-155q0 -9 -6.5 -16t-16.5 -7h-210q-9 0 -16 6.5t-7 16.5v155q0 9 6.5 16
t16.5 7h210q9 0 16 -7t7 -16z" />
    <glyph glyph-name="uniF023" unicode="&#xf023;" horiz-adv-x="164" 
d="M46 110h73v27q0 15 -11 26t-26 11t-25.5 -11t-10.5 -26v-27zM165 96v-82q0 -6 -4 -10t-10 -4h-137q-6 0 -10 4t-4 10v82q0 6 4 10t10 4h4v27q0 26 19 45t45.5 19t45 -19t18.5 -45v-27h5q6 0 10 -4t4 -10z" />
    <glyph glyph-name="uniF024" unicode="&#xf024;" horiz-adv-x="256" 
d="M46 183q0 -10 -9 -16v-181q0 -2 -1.5 -3t-3.5 -1h-9q-2 0 -3.5 1t-1.5 3v181q-9 5 -9 16q0 8 5.5 13t13 5t13 -5t5.5 -13zM256 174v-109q0 -4 -2 -6t-5 -4q-31 -17 -53 -16q-9 0 -18 3t-15.5 6.5t-16.5 7t-20 3.5q-27 0 -66 -21q-2 -1 -5 -1q-4 0 -6.5 2.5t-2.5 6.5v106
q0 5 4 8q3 2 11 6q34 17 61 17q15 0 28 -4t31 -13q5 -3 13 -3t17 3t15.5 7t12.5 7t8 3q4 0 6.5 -2.5t2.5 -6.5z" />
    <glyph glyph-name="uniF025" unicode="&#xf025;" horiz-adv-x="237" 
d="M238 93q0 -24 -9 -45l-3 -7l-26 -5q-3 -12 -13 -19.5t-22 -7.5v-4q0 -2 -1.5 -3.5t-3.5 -1.5h-9q-2 0 -3.5 1.5t-1.5 3.5v82q0 2 1.5 3t3.5 1h9q2 0 3.5 -1t1.5 -3v-5q10 0 18.5 -5t12.5 -13l10 1q4 14 4 28q0 21 -12.5 39.5t-33.5 30t-45 11.5t-45 -11.5t-34 -30
t-13 -39.5q0 -14 5 -28l9 -1q5 9 13.5 13.5t18.5 4.5v5q0 2 1.5 3t3.5 1h9q2 0 3 -1t1 -3v-82q0 -2 -1 -3.5t-3 -1.5h-9q-2 0 -3.5 1.5t-1.5 3.5v4q-13 0 -22.5 7.5t-12.5 19.5l-27 5l-2 7q-9 21 -9 45q0 22 9.5 41.5t25.5 34.5t38 23.5t46 8.5t46 -8.5t38 -23.5t25.5 -34.5
t9.5 -41.5z" />
    <glyph glyph-name="uniF026" unicode="&#xf026;" horiz-adv-x="109" 
d="M110 169v-155q0 -4 -3 -6.5t-6.5 -2.5t-6.5 2l-47 48h-38q-4 0 -6.5 2.5t-2.5 6.5v55q0 4 2.5 6.5t6.5 2.5h38l47 48q3 3 6.5 2.5t6.5 -3t3 -6.5z" />
    <glyph glyph-name="uniF027" unicode="&#xf027;" horiz-adv-x="164" 
d="M110 169v-155q0 -4 -3 -6.5t-6.5 -2.5t-6.5 2l-47 48h-38q-4 0 -6.5 2.5t-2.5 6.5v55q0 4 2.5 6.5t6.5 2.5h38l47 48q3 3 6.5 2.5t6.5 -3t3 -6.5zM165 91.5q0 -10.5 -6.5 -20t-16.5 -13.5q-1 -1 -3 -1q-4 0 -6.5 2.5t-2.5 6.5q0 3 1.5 5t4 3.5t5 3.5t4 5.5t1.5 8t-1.5 8
t-4 5l-5 3t-4 4t-1.5 5.5q0 4 2.5 6.5t6.5 2.5q2 0 3 -1q10 -4 16.5 -13.5t6.5 -20z" />
    <glyph glyph-name="uniF028" unicode="&#xf028;" horiz-adv-x="237" 
d="M110 169v-155q0 -4 -3 -6.5t-6.5 -2.5t-6.5 2l-47 48h-38q-4 0 -6.5 2.5t-2.5 6.5v55q0 4 2.5 6.5t6.5 2.5h38l47 48q3 3 6.5 2.5t6.5 -3t3 -6.5zM165 91.5q0 -10.5 -6.5 -20t-16.5 -13.5q-1 -1 -3 -1q-4 0 -6.5 2.5t-2.5 6.5q0 3 1.5 5t4 3.5t5 3.5t4 5.5t1.5 8t-1.5 8
t-4 5l-5 3t-4 4t-1.5 5.5q0 4 2.5 6.5t6.5 2.5q2 0 3 -1q10 -4 16.5 -13.5t6.5 -20zM201 91.5q0 -21.5 -12 -40t-32 -27.5q-2 -1 -4 -1q-4 0 -6.5 3t-2.5 7q0 6 6 8q8 4 10 6q11 8 17 19.5t6 25t-6 25t-17 19.5q-3 2 -10 6q-6 3 -6 8q0 4 2.5 6.5t6.5 2.5h4q20 -8 32 -27
t12 -40.5zM238 91.5q0 -32.5 -18.5 -60t-48.5 -40.5q-2 -1 -3 -1q-4 0 -7 2.5t-3 6.5q0 5 6 8q1 1 3 2t3 1q7 4 12 8q18 13 27.5 32.5t9.5 41t-9.5 41t-27.5 32.5q-5 4 -12 7q-1 1 -3 2t-3 1q-6 3 -6 9q0 4 3 6.5t7 2.5q2 0 3 -1q30 -13 48.5 -40.5t18.5 -60z" />
    <glyph glyph-name="uniF029" unicode="&#xf029;" horiz-adv-x="201" 
d="M55 55v-18h-18v18h18zM55 165v-19h-18v19h18zM165 165v-19h-19v19h19zM18 18h55v55h-55v-55zM18 128h55v55h-55v-55zM128 128h55v55h-55v-55zM91 91v-91h-91v91h91zM165 18v-18h-19v18h19zM201 18v-18h-18v18h18zM201 91v-54h-55v18h-18v-55h-18v91h55v-18h18v18h18z
M91 201v-91h-91v91h91zM201 201v-91h-91v91h91z" />
    <glyph glyph-name="uniF02A" unicode="&#xf02a;" horiz-adv-x="256" 
d="M9 0h-9v201h9v-201zM18 0h-5v201h5v-201zM31 0h-4v201h4v-201zM54 0h-5v201h5v-201zM76 0h-9v201h9v-201zM94 0h-4v201h4v-201zM103 0h-4v201h4v-201zM112 0h-4v201h4v-201zM135 0h-9v201h9v-201zM157 0h-9v201h9v-201zM175 0h-9v201h9v-201zM193 0h-9v201h9v-201zM207 0
h-9v201h9v-201zM234 0h-14v201h14v-201zM243 0h-5v201h5v-201zM256 0h-9v201h9v-201z" />
    <glyph glyph-name="uniF02B" unicode="&#xf02b;" 
d="M64 155.5q0 7.5 -5.5 13t-13 5.5t-13 -5.5t-5.5 -13t5.5 -13t13 -5.5t13 5.5t5.5 13zM216 73q0 -8 -5 -13l-70 -70q-6 -5 -13 -5q-8 0 -13 5l-102 102q-5 5 -9 14.5t-4 16.5v60q0 7 5.5 12.5t12.5 5.5h60q8 0 17 -3.5t14 -9.5l102 -102q5 -6 5 -13z" />
    <glyph glyph-name="uniF02C" unicode="&#xf02c;" horiz-adv-x="274" 
d="M64 155.5q0 7.5 -5.5 13t-13 5.5t-13 -5.5t-5.5 -13t5.5 -13t13 -5.5t13 5.5t5.5 13zM216 73q0 -8 -5 -13l-70 -70q-6 -5 -13 -5q-8 0 -13 5l-102 102q-5 5 -9 14.5t-4 16.5v60q0 7 5.5 12.5t12.5 5.5h60q8 0 17 -3.5t14 -9.5l102 -102q5 -6 5 -13zM271 73q0 -8 -5 -13
l-70 -70q-6 -5 -13 -5q-5 0 -8.5 2t-7.5 6l67 67q5 5 5 13q0 7 -5 13l-102 102q-5 5 -14.5 9t-16.5 4h32q8 0 16.5 -3.5t14.5 -9.5l102 -102q5 -6 5 -13z" />
    <glyph glyph-name="uniF02D" unicode="&#xf02d;" horiz-adv-x="237" 
d="M234 151q6 -8 3 -18l-40 -130q-3 -9 -11 -15t-17 -6h-132q-11 0 -21 7.5t-14 18.5q-3 10 -1 18q0 1 0.5 4t0.5 5q0 1 -0.5 3t0.5 3q0 2 1 3.5t2.5 3.5t1.5 3q3 5 6.5 13t4.5 13v4v4q0 2 2.5 4.5t2.5 3.5q3 5 6 13t4 13q0 1 -1 5v3q1 2 3.5 4.5l3.5 3.5q3 4 6 12t4 14
q0 1 -0.5 3.5t-0.5 3.5t1 2.5t2.5 3.5t2.5 3q1 2 2.5 4.5t2.5 5l2 5t2.5 4.5t4 3.5t5 1.5t6.5 -1v0q5 1 8 1h108q11 0 16.5 -8t2.5 -18l-39 -130q-5 -17 -10 -22t-19 -5h-124q-4 0 -5 -2q-2 -2 0 -6q3 -10 20 -10h132q4 0 8 2t5 6l43 141q1 3 1 8q5 -2 8 -6zM82 151
q-1 -2 0 -3.5t3 -1.5h87q2 0 4 1.5t2 3.5l3 9q1 2 0 3.5t-3 1.5h-87q-2 0 -3.5 -1.5t-2.5 -3.5zM70 114q-1 -2 0 -3t3 -1h87q2 0 4 1t2 3l3 9q1 2 0 3.5t-3 1.5h-87q-2 0 -3.5 -1.5t-2.5 -3.5z" />
    <glyph glyph-name="uniF02E" unicode="&#xf02e;" horiz-adv-x="182" 
d="M166 201q3 0 7 -1q5 -2 7.5 -6t2.5 -9v-184q0 -5 -3 -9t-7 -6q-3 -1 -7 -1q-7 0 -12 5l-63 60l-63 -60q-5 -5 -11 -5q-3 0 -7 1q-5 2 -7.5 6t-2.5 9v184q0 5 3 9t7 6q3 1 7 1h149z" />
    <glyph glyph-name="uniF02F" unicode="&#xf02f;" horiz-adv-x="237" 
d="M55 0h128v37h-128v-37zM55 91h128v55h-23q-6 0 -10 4t-4 10v23h-91v-92zM219 82.5q0 3.5 -2.5 6t-6 2.5t-6.5 -2.5t-3 -6t3 -6.5t6.5 -3t6 3t2.5 6.5zM238 82v-59q0 -2 -1.5 -3.5t-3.5 -1.5h-32v-23q0 -6 -4 -9.5t-10 -3.5h-137q-6 0 -9.5 4t-3.5 9v23h-32q-2 0 -3.5 1.5
t-1.5 3.5v59q0 11 8 19.5t19 8.5h10v77q0 6 4 10t9 4h96q6 0 13 -3t11 -7l21 -21q4 -4 7 -11t3 -13v-36h9q11 0 19.5 -8.5t8.5 -19.5z" />
    <glyph glyph-name="uniF030" unicode="&#xf030;" horiz-adv-x="274" 
d="M137 123q17 0 29 -12t12 -29t-12 -29t-29 -12t-29 12t-12 29t12 29t29 12zM238 183q15 0 25.5 -11t10.5 -26v-128q0 -15 -10.5 -25.5t-25.5 -10.5h-201q-15 0 -26 10.5t-11 25.5v128q0 15 10.5 26t26.5 11h32l7 19q3 7 10 12t15 5h73q8 0 15 -5t9 -12l8 -19h32zM137.5 18
q26.5 0 45 19t18.5 45.5t-18.5 45t-45 18.5t-45.5 -18.5t-19 -45t19 -45.5t45.5 -19z" />
    <glyph glyph-name="uniF031" unicode="&#xf031;" horiz-adv-x="237" 
d="M104 140l-25 -65h20h23h8q-12 37 -26 65zM0 -18v11q3 1 8 2t8.5 1.5t7 2t6.5 4t4 7.5l34 88l40 103h11h7q1 -2 2 -3l29 -68q5 -11 15.5 -37t16.5 -39q2 -5 8 -21t10 -24q3 -6 5 -8q3 -2 13 -4.5t12 -2.5q1 -5 1 -9v-2v-1q-9 0 -27.5 1t-27.5 1q-11 0 -30.5 -1t-25.5 -1
q0 6 1 11l18 4l2 1h2.5t2 0.5t2 1t1.5 1t1.5 1.5t0.5 2q0 2 -4.5 13.5t-10.5 25.5t-6 15h-64q-4 -8 -11 -28t-7 -23t2 -5.5t6 -3.5t6.5 -2t8 -1.5t6.5 -0.5v-8v-4q-8 0 -25 1.5t-25 1.5q-1 0 -4 -1h-3q-12 -2 -27 -2z" />
    <glyph glyph-name="uniF032" unicode="&#xf032;" horiz-adv-x="201" 
d="M79 2q11 -5 20 -4q54 0 54 47q0 16 -6 26q-4 6 -9 10.5t-9.5 7t-11.5 3.5t-12 1.5t-13 0.5q-10 0 -15 -2v-23v-22v-9.5v-14t0.5 -12t1.5 -9.5zM77 109q6 -1 16 -1q12 0 20.5 1.5t15.5 6t10.5 13t3.5 20.5q0 10 -4 17.5t-11 11.5t-15.5 6t-17.5 2q-7 0 -19 -1
q0 -7 0.5 -21.5t0.5 -22.5v-11.5v-10.5v-10zM0 -18v13q2 1 12 2.5t16 3.5q1 2 1.5 4t1 5t1 5t0.5 5v4.5v5v4.5q0 140 -3 147q-1 1 -3.5 2t-6.5 1.5t-7 1t-6.5 0.5h-4.5l-1 12q14 0 48.5 1.5t53.5 1.5h9.5h10.5q10 0 19.5 -2t18 -6t15 -10t10.5 -15t4 -20q0 -7 -2 -13
t-5.5 -10.5t-9.5 -8.5t-10.5 -6t-11.5 -6q22 -5 36.5 -19t14.5 -35q0 -14 -5 -25.5t-13.5 -19t-19.5 -12.5t-23 -7t-25 -2q-6 0 -19 0.5t-19 0.5q-15 0 -44 -1.5t-33 -1.5z" />
    <glyph glyph-name="uniF033" unicode="&#xf033;" horiz-adv-x="146" 
d="M0 -18l2 12q3 1 9 2.5t10.5 3t8.5 3.5q4 5 6 14q0 1 8.5 41.5t16.5 77.5t7 42v4q-3 2 -7.5 2.5t-10 1t-8.5 0.5l3 15q5 0 17.5 -0.5t21.5 -1t17 -0.5q7 0 14 0.5t17 1t14 0.5q-1 -6 -2 -13q-4 -1 -14.5 -3.5t-15.5 -4.5q-1 -3 -2 -6.5t-1.5 -6t-1 -6.5t-1.5 -6
q-4 -21 -12.5 -59.5t-10.5 -50.5q0 -1 -2 -8.5t-3 -13t-2 -12t-1 -8.5v-2q2 -1 26 -5q0 -6 -2 -14h-5h-4q-4 0 -12.5 1.5t-12.5 1.5h-29q-7 0 -20.5 -1.5t-17.5 -1.5z" />
    <glyph glyph-name="uniF034" unicode="&#xf034;" horiz-adv-x="256" 
d="M249 18q5 0 6 -2.5t-1 -6.5l-18 -23q-3 -4 -7.5 -4t-6.5 4l-18 23q-3 4 -2 6.5t6 2.5h11v147h-11q-5 0 -6 2.5t2 6.5l18 23q3 4 7 3.5t7 -3.5l18 -23q3 -4 1.5 -6.5t-6.5 -2.5h-11v-147h11zM12 201l7 -4q2 -1 30 -1q6 0 19 0.5t19 0.5h15.5h15.5h42h3h2.5t2 0.5t2.5 1
t3 2.5h6h2h2v-48q0 -11 -1 -16q-6 -2 -10 -2q-4 6 -7 18q0 1 -1.5 7t-2.5 10.5t-1 5.5q-1 1 -2 1.5t-2 0.5t-1.5 0.5t-2.5 0.5h-3h-9h-10.5t-9.5 -0.5t-10 -0.5q-1 -12 -1 -20v-55v-65v-10v-13.5t2 -9.5q6 -3 17.5 -6.5t17.5 -5.5q1 -6 0 -7v-4h-5q-11 0 -31 1t-30 1
q-7 0 -21.5 -1t-21.5 -1v7v1q2 4 8.5 6.5t14 4.5t11.5 4q3 6 2 54q0 14 -0.5 43t-0.5 44v17v2q1 2 1 3.5t-0.5 3.5t-0.5 3.5t-1 1.5q-2 2 -23 2q-5 0 -13.5 -1.5t-11.5 -3.5t-5 -10.5t-4 -16t-6 -7.5q-6 4 -8 6v55h12z" />
    <glyph glyph-name="uniF035" unicode="&#xf035;" 
d="M12 201l7 -4q2 -1 30 -1q6 0 19 0.5t19 0.5h35.5h43.5h35q5 0 8 4h6h3h1v-48v-16q-6 -2 -10 -2q-4 6 -8 18q0 1 -1 6.5t-2 10.5t-1 6q-1 2 -4 2q-1 0 -10 1h-13h-14.5t-13.5 -0.5t-14 -0.5q-1 -12 -1 -20v-22v8v-22t0.5 -25.5t0.5 -22.5q0 -2 -0.5 -10t0 -13t1.5 -10
q6 -3 18 -6t17 -5q1 -6 1 -7q0 -2 -1 -5h-5q-11 0 -31 1.5t-29 1.5q-7 0 -21.5 -1.5t-22.5 -1.5v8v1q2 4 8.5 6t14 4t11.5 4q1 2 1.5 10.5t1 21t0.5 22v21.5l-1 13v3v4v6v10v11t-1 10v4q-2 2 -24 2q-6 0 -23 -2t-20 -3q-3 -2 -5 -10.5t-4 -16t-6 -7.5q-6 4 -8 6v55h12z
M187 18q2 0 6 -3l8 -6t8.5 -7t5.5 -4q4 -3 4 -7t-4 -7q-1 0 -5.5 -4t-8.5 -7.5t-8 -6t-6 -2.5t-3 1.5t-1.5 4t-0.5 4.5t0.5 4.5t0.5 3.5h-146v-3v-5t-0.5 -4.5t-1.5 -4t-3 -1.5t-6 2.5t-8 6t-8.5 7t-5.5 4.5q-4 3 -3.5 7t3.5 7q1 0 5.5 4t8.5 7t8.5 6t5.5 3q2 0 3 -1.5
t1.5 -4t0.5 -5v-5.5v-2h146l-1 2v5.5t0.5 5t1.5 4t3 1.5z" />
    <glyph glyph-name="uniF036" unicode="&#xf036;" horiz-adv-x="256" 
d="M256 27v-18q0 -4 -2.5 -6.5t-6.5 -2.5h-238q-4 0 -6.5 2.5t-2.5 6.5v18q0 4 2.5 7t6.5 3h238q4 0 6.5 -3t2.5 -7zM201 82v-18q0 -4 -2.5 -6.5t-6.5 -2.5h-183q-4 0 -6.5 2.5t-2.5 6.5v18q0 4 2.5 6.5t6.5 2.5h183q4 0 6.5 -2.5t2.5 -6.5zM238 137v-18q0 -4 -3 -6.5
t-6 -2.5h-220q-4 0 -6.5 2.5t-2.5 6.5v18q0 4 2.5 6.5t6.5 2.5h220q4 0 6.5 -2.5t2.5 -6.5zM183 192v-18q0 -4 -3 -6.5t-6 -2.5h-165q-4 0 -6.5 2.5t-2.5 6.5v18q0 4 2.5 6.5t6.5 2.5h165q4 0 6.5 -2.5t2.5 -6.5z" />
    <glyph glyph-name="uniF037" unicode="&#xf037;" horiz-adv-x="256" 
d="M256 27v-18q0 -4 -2.5 -6.5t-6.5 -2.5h-238q-4 0 -6.5 2.5t-2.5 6.5v18q0 4 2.5 7t6.5 3h238q4 0 6.5 -3t2.5 -7zM201 82v-18q0 -4 -2.5 -6.5t-6.5 -2.5h-128q-4 0 -6.5 2.5t-2.5 6.5v18q0 4 2.5 6.5t6.5 2.5h128q4 0 6.5 -2.5t2.5 -6.5zM238 137v-18q0 -4 -3 -6.5
t-6 -2.5h-202q-4 0 -6.5 2.5t-2.5 6.5v18q0 4 3 6.5t6 2.5h202q4 0 6.5 -2.5t2.5 -6.5zM183 192v-18q0 -4 -3 -6.5t-6 -2.5h-92q-4 0 -6.5 2.5t-2.5 6.5v18q0 4 3 6.5t6 2.5h92q4 0 6.5 -2.5t2.5 -6.5z" />
    <glyph glyph-name="uniF038" unicode="&#xf038;" horiz-adv-x="256" 
d="M256 27v-18q0 -4 -2.5 -6.5t-6.5 -2.5h-238q-4 0 -6.5 2.5t-2.5 6.5v18q0 4 2.5 7t6.5 3h238q4 0 6.5 -3t2.5 -7zM256 82v-18q0 -4 -2.5 -6.5t-6.5 -2.5h-183q-4 0 -6.5 2.5t-2.5 6.5v18q0 4 2.5 6.5t6.5 2.5h183q4 0 6.5 -2.5t2.5 -6.5zM256 137v-18q0 -4 -2.5 -6.5
t-6.5 -2.5h-220q-4 0 -6.5 2.5t-2.5 6.5v18q0 4 3 6.5t6 2.5h220q4 0 6.5 -2.5t2.5 -6.5zM256 192v-18q0 -4 -2.5 -6.5t-6.5 -2.5h-165q-4 0 -6.5 2.5t-2.5 6.5v18q0 4 3 6.5t6 2.5h165q4 0 6.5 -2.5t2.5 -6.5z" />
    <glyph glyph-name="uniF039" unicode="&#xf039;" horiz-adv-x="256" 
d="M256 27v-18q0 -4 -2.5 -6.5t-6.5 -2.5h-238q-4 0 -6.5 2.5t-2.5 6.5v18q0 4 2.5 7t6.5 3h238q4 0 6.5 -3t2.5 -7zM256 82v-18q0 -4 -2.5 -6.5t-6.5 -2.5h-238q-4 0 -6.5 2.5t-2.5 6.5v18q0 4 2.5 6.5t6.5 2.5h238q4 0 6.5 -2.5t2.5 -6.5zM256 137v-18q0 -4 -2.5 -6.5
t-6.5 -2.5h-238q-4 0 -6.5 2.5t-2.5 6.5v18q0 4 2.5 6.5t6.5 2.5h238q4 0 6.5 -2.5t2.5 -6.5zM256 192v-18q0 -4 -2.5 -6.5t-6.5 -2.5h-238q-4 0 -6.5 2.5t-2.5 6.5v18q0 4 2.5 6.5t6.5 2.5h238q4 0 6.5 -2.5t2.5 -6.5z" />
    <glyph glyph-name="uniF03A" unicode="&#xf03a;" horiz-adv-x="256" 
d="M37 32v-27q0 -2 -1.5 -3.5t-3.5 -1.5h-27q-2 0 -3.5 1.5t-1.5 3.5v27q0 2 1.5 3.5t3.5 1.5h27q2 0 3.5 -1.5t1.5 -3.5zM37 87v-28q0 -2 -1.5 -3t-3.5 -1h-27q-2 0 -3.5 1.5t-1.5 2.5v28q0 2 1.5 3t3.5 1h27q2 0 3.5 -1t1.5 -3zM37 142v-28q0 -2 -1.5 -3t-3.5 -1h-27
q-2 0 -3.5 1t-1.5 3v28q0 2 1.5 3t3.5 1h27q2 0 3.5 -1t1.5 -3zM256 32v-27q0 -2 -1.5 -3.5t-3.5 -1.5h-192q-2 0 -3 1.5t-1 3.5v27q0 2 1.5 3.5t2.5 1.5h192q2 0 3.5 -1.5t1.5 -3.5zM37 197v-28q0 -2 -1.5 -3t-3.5 -1h-27q-2 0 -3.5 1t-1.5 3v28q0 2 1.5 3t3.5 1h27
q2 0 3.5 -1t1.5 -3zM256 87v-28q0 -2 -1.5 -3t-3.5 -1h-192q-2 0 -3 1.5t-1 2.5v28q0 2 1.5 3t2.5 1h192q2 0 3.5 -1t1.5 -3zM256 142v-28q0 -2 -1.5 -3t-3.5 -1h-192q-2 0 -3 1t-1 3v28q0 2 1.5 3t2.5 1h192q2 0 3.5 -1t1.5 -3zM256 197v-28q0 -2 -1.5 -3t-3.5 -1h-192
q-2 0 -3 1t-1 3v28q0 2 1.5 3t2.5 1h192q2 0 3.5 -1t1.5 -3z" />
    <glyph glyph-name="uniF03B" unicode="&#xf03b;" horiz-adv-x="256" 
d="M55 142v-83q0 -2 -1.5 -3t-3.5 -1t-3 1l-41 41q-1 1 -1 3.5t1 3.5l41 41q1 1 3 1t3.5 -1t1.5 -3zM256 32v-27q0 -2 -1.5 -3.5t-3.5 -1.5h-246q-2 0 -3.5 1.5t-1.5 3.5v27q0 2 1.5 3.5t3.5 1.5h246q2 0 3.5 -1.5t1.5 -3.5zM256 87v-28q0 -2 -1.5 -3t-3.5 -1h-155
q-2 0 -3.5 1.5t-1.5 2.5v28q0 2 1.5 3t3.5 1h155q2 0 3.5 -1t1.5 -3zM256 142v-28q0 -2 -1.5 -3t-3.5 -1h-155q-2 0 -3.5 1t-1.5 3v28q0 2 1.5 3t3.5 1h155q2 0 3.5 -1t1.5 -3zM256 197v-28q0 -2 -1.5 -3t-3.5 -1h-246q-2 0 -3.5 1t-1.5 3v28q0 2 1.5 3t3.5 1h246
q2 0 3.5 -1t1.5 -3z" />
    <glyph glyph-name="uniF03C" unicode="&#xf03c;" horiz-adv-x="256" 
d="M50 101q0 -2 -1 -4l-41 -41q-1 -1 -3 -1t-3.5 1.5t-1.5 2.5v83q0 2 1.5 3t3.5 1t3 -1l41 -41q1 -1 1 -3zM256 32v-27q0 -2 -1.5 -3.5t-3.5 -1.5h-246q-2 0 -3.5 1.5t-1.5 3.5v27q0 2 1.5 3.5t3.5 1.5h246q2 0 3.5 -1.5t1.5 -3.5zM256 87v-28q0 -2 -1.5 -3t-3.5 -1h-155
q-2 0 -3.5 1.5t-1.5 2.5v28q0 2 1.5 3t3.5 1h155q2 0 3.5 -1t1.5 -3zM256 142v-28q0 -2 -1.5 -3t-3.5 -1h-155q-2 0 -3.5 1t-1.5 3v28q0 2 1.5 3t3.5 1h155q2 0 3.5 -1t1.5 -3zM256 197v-28q0 -2 -1.5 -3t-3.5 -1h-246q-2 0 -3.5 1t-1.5 3v28q0 2 1.5 3t3.5 1h246
q2 0 3.5 -1t1.5 -3z" />
    <glyph glyph-name="uniF03D" unicode="&#xf03d;" horiz-adv-x="256" 
d="M256 169v-155q0 -6 -6 -9q-2 -1 -3 0q-4 0 -7 2l-57 58v-24q0 -17 -12 -29t-29 -12h-101q-17 0 -29 12t-12 29v101q0 17 12 29t29 12h101q17 0 29 -12t12 -29v-24l57 58q3 3 7 2h3q6 -3 6 -9z" />
    <glyph glyph-name="uniF03E" unicode="&#xf03e;" horiz-adv-x="274" 
d="M91 137.5q0 -11.5 -8 -19.5t-19 -8t-19 8t-8 19.5t8 19.5t19 8t19 -8t8 -19.5zM238 82v-64h-201v28l45 45l23 -22l73 73zM251 183h-228q-2 0 -3.5 -1.5t-1.5 -3.5v-173q0 -2 1.5 -3.5t3.5 -1.5h228q2 0 3.5 1.5t1.5 3.5v173q0 2 -1.5 3.5t-3.5 1.5zM274 178v-173
q0 -9 -6.5 -16t-16.5 -7h-228q-9 0 -16 6.5t-7 16.5v173q0 9 6.5 16t16.5 7h228q9 0 16 -7t7 -16z" />
    <glyph glyph-name="uniF040" unicode="&#xf040;" 
d="M52 0l13 13l-34 34l-13 -13v-16h19v-18h15zM127 133q0 3 -4 3q-1 0 -2 -1l-77 -78q-1 -1 -1 -2q0 -3 3 -3q1 0 2 1l78 77q1 2 1 3zM119 160l59 -59l-119 -119h-59v59zM216 146q0 -8 -5 -13l-24 -23l-59 59l24 24q5 5 13 5t13 -5l33 -34q5 -6 5 -13z" />
    <glyph glyph-name="uniF041" unicode="&#xf041;" horiz-adv-x="146" 
d="M110 128q0 15 -11 26t-26 11t-25.5 -11t-10.5 -26t10.5 -26t25.5 -11t26 11t11 26zM146 128q0 -16 -4 -26l-52 -110q-2 -5 -7 -7.5t-10 -2.5t-9.5 2.5t-6.5 7.5l-52 110q-5 10 -5 26q0 30 21.5 51.5t51.5 21.5t51.5 -21.5t21.5 -51.5z" />
    <glyph glyph-name="uniF042" unicode="&#xf042;" 
d="M110 14v155q-21 0 -39 -10.5t-28.5 -28t-10.5 -39t10.5 -39t28.5 -28t39 -10.5zM219 91.5q0 -29.5 -14.5 -55t-39.5 -40t-55 -14.5t-55.5 14.5t-40 40t-14.5 55t14.5 55t40 40t55.5 14.5t55 -14.5t39.5 -40t14.5 -55z" />
    <glyph glyph-name="uniF043" unicode="&#xf043;" horiz-adv-x="146" 
d="M73 55q0 5 -3 10l-2 3t-3.5 5.5t-3.5 6.5t-3 7q-1 2 -3.5 2t-2.5 -2q-1 -3 -3 -7t-3.5 -6.5t-3.5 -5.5t-3 -3q-3 -5 -2 -10q0 -8 5 -13t12.5 -5t13 5t5.5 13zM146 73q0 -30 -21.5 -51.5t-51.5 -21.5t-51.5 21.5t-21.5 51.5q0 21 12 39q1 1 9 13t14 22t14 25.5t12 28.5
q1 4 4.5 6.5t7.5 2.5t7.5 -2.5t4.5 -6.5q4 -13 12 -28.5t14.5 -25.5t14.5 -21.5t9 -13.5q11 -18 11 -39z" />
    <glyph glyph-name="uniF044" unicode="&#xf044;" horiz-adv-x="256" 
d="M127 50l16 17l-21 22l-17 -17v-8h14v-14h8zM189.5 153q-2.5 2 -4.5 0l-50 -50q-2 -2 0 -4.5t5 -0.5l50 50q2 3 -0.5 5zM201 68v-27q0 -17 -12 -29t-29 -12h-119q-17 0 -29 12t-12 29v119q0 17 12 29t29 12h119q9 0 17 -3q2 -1 2 -4q0 -2 -1 -4l-7 -7q-2 -2 -5 -1t-6 1
h-119q-9 0 -16 -7t-7 -16v-119q0 -9 7 -16t16 -7h119q9 0 16 7t7 16v18q0 2 1 3l9 9q2 2 5 1t3 -4zM187 174l42 -41l-96 -96h-42v41zM251 155l-13 -13l-41 41l13 13q4 4 9.5 4t9.5 -4l22 -22q4 -4 4 -9.5t-4 -9.5z" />
    <glyph glyph-name="uniF045" unicode="&#xf045;" horiz-adv-x="237" 
d="M201 78v-37q0 -17 -12 -29t-29 -12h-119q-17 0 -29 12t-12 29v119q0 17 12 29t29 12h37v0q2 0 3 -1.5t1 -2.5q0 -4 -4 -5q-11 -4 -19 -9q-1 -1 -2 0h-16q-9 0 -16 -7t-7 -16v-119q0 -9 7 -16t16 -7h119q9 0 16 7t7 16v31q0 3 2 4q4 2 8 5q2 2 5 1t3 -4zM235 149l-55 -55
q-3 -3 -6 -3q-2 0 -4 1q-6 2 -5 9v27h-23q-46 0 -63 -19q-17 -20 -10 -67q0 -3 -3 -5h-2q-2 0 -4 1q-1 2 -2.5 4.5t-5.5 10t-7 14.5t-5.5 16.5t-2.5 17.5q0 7 0.5 13t2 12.5t4 12.5t6.5 12t9.5 10.5t13.5 8.5t18 7t23 4.5t28 1.5h23v27q0 6 5 9q2 1 4 0q4 0 6 -2l55 -55
q3 -3 3 -6.5t-3 -6.5z" />
    <glyph glyph-name="uniF046" unicode="&#xf046;" horiz-adv-x="237" 
d="M201 87v-46q0 -17 -12 -29t-29 -12h-119q-17 0 -29 12t-12 29v119q0 17 12 29t29 12h119q9 0 17 -3q2 -1 2 -4q0 -2 -1 -4l-7 -7q-1 -1 -3 -1h-2q-3 1 -6 1h-119q-9 0 -16 -7t-7 -16v-119q0 -9 7 -16t16 -7h119q9 0 16 7t7 16v36q0 2 1 4l9 9q1 1 4 1h1q3 -1 3 -4z
M234 156l-116 -116q-3 -3 -8 -3t-8 3l-62 62q-3 3 -3 7.5t3 8.5l16 16q3 3 8 3t8 -3l38 -38l92 92q3 3 8 3.5t8 -3.5l16 -15q3 -3 3 -8.5t-3 -8.5z" />
    <glyph glyph-name="uniF047" unicode="&#xf047;" horiz-adv-x="256" 
d="M256 91.5q0 -3.5 -3 -6.5l-36 -37q-3 -3 -6.5 -2.5t-6.5 3t-3 6.5v18h-55v-55h19q4 0 6.5 -2.5t2.5 -6.5t-3 -6l-37 -37q-3 -3 -6.5 -3t-5.5 3l-37 37q-3 3 -3 6.5t3 6t6 2.5h19v55h-55v-18q0 -4 -3 -6.5t-6.5 -2.5t-6.5 2l-36 37q-3 3 -3 6.5t3 6.5l36 36q3 3 6.5 3
t6.5 -2.5t3 -6.5v-18h55v55h-19q-4 0 -6.5 2.5t-2.5 6t3 6.5l37 37q3 3 6.5 2.5t5.5 -2.5l37 -37q3 -3 3 -6.5t-3 -6t-6 -2.5h-19v-55h55v18q0 4 3 6.5t6.5 2.5t6.5 -3l36 -36q3 -3 3 -6.5z" />
    <glyph glyph-name="uniF048" unicode="&#xf048;" horiz-adv-x="146" 
d="M140 199q3 3 4.5 2t1.5 -4v-211q0 -4 -1.5 -4.5t-4.5 2.5l-102 101q-1 1 -1 3v-97q0 -4 -3 -6.5t-7 -2.5h-18q-4 0 -6.5 2.5t-2.5 6.5v201q0 4 2.5 6.5t6.5 2.5h18q4 0 7 -2.5t3 -6.5v-97q1 1 1 3z" />
    <glyph glyph-name="uniF049" unicode="&#xf049;" horiz-adv-x="256" 
d="M250 199q3 3 4.5 2t1.5 -4v-211q0 -4 -2 -4.5t-4 2.5l-102 101q-1 1 -2 3v-102q0 -4 -1.5 -4.5t-4.5 2.5l-102 101q-1 1 -1 3v-97q0 -4 -3 -6.5t-7 -2.5h-18q-4 0 -6.5 2.5t-2.5 6.5v201q0 4 2.5 6.5t6.5 2.5h18q4 0 7 -2.5t3 -6.5v-97q1 1 1 3l102 101q3 3 4.5 2t1.5 -4
v-102q1 1 2 3z" />
    <glyph glyph-name="uniF04A" unicode="&#xf04a;" horiz-adv-x="237" 
d="M231 199q3 3 5 2t2 -4v-211q0 -4 -2 -4.5t-5 2.5l-101 101q-1 1 -2 3v-102q0 -4 -2 -4.5t-4 2.5l-102 101q-3 3 -3 6.5t3 6.5l102 101q3 3 4.5 2t1.5 -4v-102q1 1 2 3z" />
    <glyph glyph-name="uniF04B" unicode="&#xf04b;" horiz-adv-x="201" 
d="M198 87l-190 -105q-3 -2 -5.5 -0.5t-2.5 4.5v211q0 4 2.5 5t5.5 -1l190 -105q3 -2 3 -4.5t-3 -4.5z" />
    <glyph glyph-name="uniF04C" unicode="&#xf04c;" 
d="M219 192v-201q0 -4 -2.5 -6.5t-6.5 -2.5h-73q-4 0 -6.5 2.5t-2.5 6.5v201q0 4 2.5 6.5t6.5 2.5h73q4 0 6.5 -2.5t2.5 -6.5zM91 192v-201q0 -4 -2.5 -6.5t-6.5 -2.5h-73q-4 0 -6.5 2.5t-2.5 6.5v201q0 4 2.5 6.5t6.5 2.5h73q4 0 6.5 -2.5t2.5 -6.5z" />
    <glyph glyph-name="uniF04D" unicode="&#xf04d;" 
d="M219 192v-201q0 -4 -2.5 -6.5t-6.5 -2.5h-201q-4 0 -6.5 2.5t-2.5 6.5v201q0 4 2.5 6.5t6.5 2.5h201q4 0 6.5 -2.5t2.5 -6.5z" />
    <glyph glyph-name="uniF04E" unicode="&#xf04e;" horiz-adv-x="237" 
d="M6 -16q-3 -3 -4.5 -2t-1.5 4v211q0 4 2 4.5t4 -2.5l102 -101q1 -1 2 -3v102q0 4 1.5 4.5t4.5 -2.5l102 -101q3 -3 2.5 -6.5t-2.5 -6.5l-102 -101q-3 -3 -4.5 -2t-1.5 4v102q-1 -1 -2 -3z" />
    <glyph glyph-name="uniF050" unicode="&#xf050;" horiz-adv-x="256" 
d="M6 -16q-3 -3 -4.5 -2t-1.5 4v211q0 4 2 4.5t4 -2.5l102 -101q1 -1 2 -3v102q0 4 1.5 4.5t4.5 -2.5l102 -101q1 -1 1 -3v97q0 4 3 6.5t7 2.5h18q4 0 6.5 -2.5t2.5 -6.5v-201q0 -4 -2.5 -6.5t-6.5 -2.5h-18q-4 0 -7 2.5t-3 6.5v97q-1 -1 -1 -3l-102 -101q-3 -3 -4.5 -2
t-1.5 4v102q-1 -1 -2 -3z" />
    <glyph glyph-name="uniF051" unicode="&#xf051;" horiz-adv-x="146" 
d="M6 -16q-3 -3 -4.5 -2t-1.5 4v211q0 4 2 4.5t4 -2.5l102 -101q1 -1 2 -3v97q0 4 2.5 6.5t6.5 2.5h18q4 0 6.5 -2.5t2.5 -6.5v-201q0 -4 -2.5 -6.5t-6.5 -2.5h-18q-4 0 -6.5 2.5t-2.5 6.5v97q-1 -1 -2 -3z" />
    <glyph glyph-name="uniF052" unicode="&#xf052;" 
d="M2 80l101 101q3 3 7 3t6 -3l102 -101q3 -3 2 -5t-5 -2h-210q-4 0 -5 2t2 5zM210 0h-201q-4 0 -6.5 2.5t-2.5 6.5v37q0 4 3 6.5t6 2.5h201q4 0 7 -3t3 -6v-37q0 -4 -3 -6.5t-7 -2.5z" />
    <glyph glyph-name="uniF053" unicode="&#xf053;" horiz-adv-x="182" 
d="M167 176l-76 -75l76 -76q3 -3 3 -6.5t-3 -6.5l-23 -24q-3 -3 -7 -3t-6 3l-106 106q-3 3 -3 6.5t3 6.5l106 106q3 3 6.5 3t6.5 -3l23 -24q3 -3 3 -6.5t-3 -6.5z" />
    <glyph glyph-name="uniF054" unicode="&#xf054;" horiz-adv-x="182" 
d="M158 94l-106 -106q-3 -3 -6.5 -3t-6.5 3l-23 24q-3 3 -3 6.5t3 6.5l75 76l-75 75q-3 3 -3 7t3 6l23 24q3 3 6.5 3t6.5 -3l106 -106q3 -3 3 -6.5t-3 -6.5z" />
    <glyph glyph-name="uniF055" unicode="&#xf055;" 
d="M174 82v19q0 4 -3 6.5t-6 2.5h-37v36q0 4 -2.5 6.5t-6.5 2.5h-18q-4 0 -7 -2.5t-3 -6.5v-36h-36q-4 0 -6.5 -3t-2.5 -6v-19q0 -4 2.5 -6.5t6.5 -2.5h36v-36q0 -4 3 -7t7 -3h18q4 0 6.5 3t2.5 7v36h37q4 0 6.5 2.5t2.5 6.5zM219 91.5q0 -29.5 -14.5 -55t-39.5 -40
t-55 -14.5t-55.5 14.5t-40 40t-14.5 55t14.5 55t40 40t55.5 14.5t55 -14.5t39.5 -40t14.5 -55z" />
    <glyph glyph-name="uniF056" unicode="&#xf056;" 
d="M174 82v19q0 4 -3 6.5t-6 2.5h-110q-4 0 -6.5 -3t-2.5 -6v-19q0 -4 2.5 -6.5t6.5 -2.5h110q4 0 6.5 2.5t2.5 6.5zM219 91.5q0 -29.5 -14.5 -55t-39.5 -40t-55 -14.5t-55.5 14.5t-40 40t-14.5 55t14.5 55t40 40t55.5 14.5t55 -14.5t39.5 -40t14.5 -55z" />
    <glyph glyph-name="uniF057" unicode="&#xf057;" 
d="M164 59q0 4 -3 7l-25 25l25 26q3 3 3 7t-3 6l-12 13q-3 3 -7 3t-6 -3l-26 -26l-26 26q-3 3 -7 3t-6 -3l-13 -13q-3 -3 -3 -6q0 -4 3 -7l26 -26l-26 -25q-3 -3 -3 -7t3 -6l13 -13q3 -3 6 -3q4 0 7 3l26 26l26 -26q3 -3 6 -3q4 0 7 3l12 13q3 2 3 6zM219 91.5
q0 -29.5 -14.5 -55t-39.5 -40t-55 -14.5t-55.5 14.5t-40 40t-14.5 55t14.5 55t40 40t55.5 14.5t55 -14.5t39.5 -40t14.5 -55z" />
    <glyph glyph-name="uniF058" unicode="&#xf058;" 
d="M183 115q0 4 -2 6l-13 13q-3 3 -6.5 3t-6.5 -3l-58 -58l-33 32q-3 3 -6.5 3t-5.5 -3l-13 -13q-3 -3 -3 -6q0 -4 3 -7l51 -51q3 -3 7 -3t6 3l78 77q2 3 2 7zM219 91.5q0 -29.5 -14.5 -55t-39.5 -40t-55 -14.5t-55.5 14.5t-40 40t-14.5 55t14.5 55t40 40t55.5 14.5
t55 -14.5t39.5 -40t14.5 -55z" />
    <glyph glyph-name="uniF059" unicode="&#xf059;" 
d="M128 23v27q0 2 -1.5 3.5t-3.5 1.5h-27q-2 0 -3.5 -1.5t-1.5 -3.5v-27q0 -2 1.5 -3.5t3.5 -1.5h27q2 0 3.5 1.5t1.5 3.5zM165 119q0 13 -8 23.5t-20 16.5t-24 6q-35 0 -53 -31q-2 -3 1 -6l19 -14q1 -1 2 -1q2 0 4 2q8 10 12 13q5 3 12 3t12.5 -3.5t5.5 -8.5t-3 -8.5
t-10 -6.5q-9 -4 -16.5 -12.5t-7.5 -17.5v-5q0 -2 1.5 -3.5t3.5 -1.5h27q2 0 3.5 1.5t1.5 3.5q0 3 3 7t8 7t7 4t6.5 4.5t6.5 7t4 9t2 11.5zM219 91.5q0 -29.5 -14.5 -55t-39.5 -40t-55 -14.5t-55.5 14.5t-40 40t-14.5 55t14.5 55t40 40t55.5 14.5t55 -14.5t39.5 -40t14.5 -55
z" />
    <glyph glyph-name="uniF05A" unicode="&#xf05a;" 
d="M146 23v23q0 2 -1 3t-3 1h-14v73q0 2 -1.5 3.5t-3.5 1.5h-45q-2 0 -3.5 -1.5t-1.5 -3.5v-22q0 -2 1.5 -3.5t3.5 -1.5h13v-46h-13q-2 0 -3.5 -1t-1.5 -3v-23q0 -2 1.5 -3.5t3.5 -1.5h64q2 0 3 1.5t1 3.5zM128 151v23q0 2 -1.5 3t-3.5 1h-27q-2 0 -3.5 -1t-1.5 -3v-23
q0 -2 1.5 -3.5t3.5 -1.5h27q2 0 3.5 1.5t1.5 3.5zM219 91.5q0 -29.5 -14.5 -55t-39.5 -40t-55 -14.5t-55.5 14.5t-40 40t-14.5 55t14.5 55t40 40t55.5 14.5t55 -14.5t39.5 -40t14.5 -55z" />
    <glyph glyph-name="uniF05B" unicode="&#xf05b;" 
d="M171 73h-16q-4 0 -6.5 3t-2.5 6v19q0 4 3 6.5t6 2.5h16q-5 15 -16.5 26.5t-26.5 16.5v-16q0 -4 -2.5 -6.5t-6.5 -2.5h-18q-4 0 -7 2.5t-3 6.5v16q-15 -5 -26.5 -16.5t-16.5 -26.5h16q4 0 6.5 -3t2.5 -6v-19q0 -4 -2.5 -6.5t-6.5 -2.5h-16q5 -15 16.5 -26.5t26.5 -16.5v16
q0 4 3 6.5t7 2.5h18q4 0 6.5 -3t2.5 -6v-16q15 5 26.5 16.5t16.5 26.5zM219 101v-19q0 -4 -2.5 -6.5t-6.5 -2.5h-20q-5 -23 -22 -39.5t-40 -22.5v-20q0 -4 -2.5 -6.5t-6.5 -2.5h-18q-4 0 -7 2.5t-3 6.5v20q-23 5 -39.5 22t-21.5 40h-21q-4 0 -6.5 3t-2.5 6v19q0 4 2.5 6.5
t6.5 2.5h21q5 23 21.5 39.5t39.5 22.5v20q0 4 3 6.5t7 2.5h18q4 0 6.5 -2.5t2.5 -6.5v-20q23 -5 40 -22t22 -40h20q4 0 6.5 -2.5t2.5 -6.5z" />
    <glyph glyph-name="uniF05C" unicode="&#xf05c;" 
d="M157 65l-21 -21q-1 -1 -3 -1t-4 1l-19 20l-20 -20q-1 -1 -3 -1t-3 1l-21 21q-1 1 -1.5 3t1.5 4l19 19l-19 20q-1 1 -1.5 3t1.5 4l21 20q1 1 3 1.5t3 -1.5l20 -19l19 19q1 1 3 1.5t4 -1.5l21 -20q1 -1 1 -3.5t-1 -3.5l-20 -20l20 -19q1 -1 1 -3.5t-1 -3.5zM187 91.5
q0 21.5 -10 39t-28 28t-39 10.5t-39 -10.5t-28.5 -28t-10.5 -39t10.5 -39t28.5 -28t39 -10.5t39 10.5t28 28t10 39zM219 91.5q0 -29.5 -14.5 -55t-39.5 -40t-55 -14.5t-55.5 14.5t-40 40t-14.5 55t14.5 55t40 40t55.5 14.5t55 -14.5t39.5 -40t14.5 -55z" />
    <glyph glyph-name="uniF05D" unicode="&#xf05d;" 
d="M167 103l-60 -60q-3 -3 -6.5 -3t-6.5 3l-42 42q-3 3 -3 6.5t3 6.5l15 14q3 3 6.5 3t6.5 -3l21 -21l39 40q3 3 6.5 2.5t6.5 -2.5l14 -15q3 -3 3 -6.5t-3 -6.5zM187 91.5q0 21.5 -10 39t-28 28t-39 10.5t-39 -10.5t-28.5 -28t-10.5 -39t10.5 -39t28.5 -28t39 -10.5t39 10.5
t28 28t10 39zM219 91.5q0 -29.5 -14.5 -55t-39.5 -40t-55 -14.5t-55.5 14.5t-40 40t-14.5 55t14.5 55t40 40t55.5 14.5t55 -14.5t39.5 -40t14.5 -55z" />
    <glyph glyph-name="uniF05E" unicode="&#xf05e;" 
d="M187 92q0 23 -12 42l-108 -108q20 -13 43 -12q16 0 30 6t24.5 16.5t16.5 25t6 30.5zM45 49l108 108q-19 13 -43 13q-21 0 -39 -10.5t-28.5 -28.5t-10.5 -39q0 -23 13 -43zM219 91.5q0 -22.5 -8.5 -42.5t-23 -35t-35 -23.5t-43 -8.5t-42.5 8.5t-35 23.5t-23.5 35
t-8.5 42.5t8.5 43t23.5 35t35 23.5t42.5 9t43 -9t35 -23.5t23 -35t8.5 -43z" />
    <glyph glyph-name="uniF060" unicode="&#xf060;" 
d="M219 91v-18q0 -8 -4.5 -13t-11.5 -5h-101l42 -42q5 -5 5 -13t-5 -13l-11 -11q-5 -5 -13 -5q-7 0 -13 5l-93 93q-5 5 -5 13q0 7 5 13l93 93q5 5 13 6q7 0 13 -6l11 -10q5 -5 5 -13t-5 -13l-42 -42h101q7 0 11.5 -5.5t4.5 -13.5z" />
    <glyph glyph-name="uniF061" unicode="&#xf061;" 
d="M210 82q0 -8 -5 -13l-93 -93q-6 -5 -13 -5t-13 5l-11 11q-5 5 -5 13t5 13l42 42h-100q-7 0 -12 5.5t-5 12.5v18q0 8 4.5 13.5t12.5 5.5h100l-42 42q-5 5 -5 12.5t5 12.5l11 11q5 5 13 6q8 0 13 -6l93 -93q5 -5 5 -13z" />
    <glyph glyph-name="uniF062" unicode="&#xf062;" horiz-adv-x="237" 
d="M230 81q0 -7 -5 -13l-11 -11q-5 -5 -13 -5t-13 5l-42 42v-101q0 -7 -5 -11.5t-13 -4.5h-18q-8 0 -13.5 4.5t-5.5 11.5v101l-42 -42q-5 -5 -12.5 -5t-12.5 5l-11 11q-5 5 -5 13t5 13l93 93q5 5 13 5t13 -5l93 -93q5 -6 5 -13z" />
    <glyph glyph-name="uniF063" unicode="&#xf063;" horiz-adv-x="237" 
d="M230 101q0 -8 -5 -13l-93 -93q-6 -5 -13 -6q-8 0 -13 6l-93 93q-5 5 -5 13t5 13l11 10q6 5 13 6q8 0 12 -6l42 -42v101q0 7 5.5 12.5t13.5 5.5h18q7 0 12.5 -5.5t5.5 -12.5v-101l42 42q5 5 13 6q7 0 13 -6l11 -10q5 -6 5 -13z" />
    <glyph glyph-name="uniF064" unicode="&#xf064;" horiz-adv-x="256" 
d="M256 128q0 -4 -3 -6l-73 -74q-3 -3 -6.5 -2.5t-6 3t-2.5 6.5v36h-32q-14 0 -25.5 -0.5t-22 -3t-19 -6t-15.5 -10t-11 -14.5t-6.5 -19.5t-2.5 -26.5v-17q0 -1 0.5 -3.5t0.5 -3.5q0 -2 -1 -3.5t-4 -1.5q-2 0 -4 2q-1 1 -1.5 3t-1.5 4.5t-2 3.5q-18 41 -18 64q0 28 8 48
q23 58 125 58h32v36q0 4 2.5 6.5t6 2.5t6.5 -2l73 -74q3 -2 3 -6z" />
    <glyph glyph-name="uniF065" unicode="&#xf065;" 
d="M108 68.5q0 -1.5 -2 -3.5l-47 -47l21 -21q3 -3 2.5 -6.5t-3 -6t-6.5 -2.5h-64q-4 0 -6.5 2.5t-2.5 6.5v64q0 4 2.5 6.5t6.5 2.5t7 -3l20 -20l48 47q1 1 3 1.5t3 -1.5l16 -16q2 -2 2 -3.5zM219 192v-64q0 -4 -2.5 -6.5t-6 -2.5t-6.5 3l-21 20l-47 -47q-1 -1 -3 -1.5
t-4 1.5l-16 16q-1 1 -1 3t1 4l47 47l-20 21q-3 3 -3 6.5t3 6t6 2.5h64q4 0 6.5 -2.5t2.5 -6.5z" />
    <glyph glyph-name="uniF066" unicode="&#xf066;" 
d="M110 82v-64q0 -4 -3 -6.5t-6.5 -2.5t-6.5 3l-20 20l-48 -47q-1 -1 -3 -1t-3 1l-17 16q-1 1 -1 3t1 4l48 47l-21 21q-3 3 -3 6.5t3 6t7 2.5h64q4 0 6.5 -2.5t2.5 -6.5zM218 178q0 -2 -2 -3l-47 -47l20 -21q3 -3 3 -6.5t-2.5 -6.5t-6.5 -3h-64q-4 0 -6.5 3t-2.5 7v64
q0 4 2.5 6.5t6.5 2.5t6 -3l21 -21l47 48q1 1 3 1t4 -1l16 -16q2 -2 2 -4z" />
    <glyph glyph-name="uniF067" unicode="&#xf067;" horiz-adv-x="201" 
d="M201 114v-27q0 -6 -4 -10t-10 -4h-59v-59q0 -6 -4 -10t-10 -4h-27q-6 0 -10 4t-4 10v59h-59q-6 0 -10 4t-4 10v27q0 6 4 10t10 4h59v59q0 6 4 10t10 4h27q6 0 10 -4t4 -10v-59h59q6 0 10 -4t4 -10z" />
    <glyph glyph-name="uniF068" unicode="&#xf068;" horiz-adv-x="201" 
d="M201 114v-27q0 -6 -4 -10t-10 -4h-173q-6 0 -10 4t-4 10v27q0 6 4 10t10 4h173q6 0 10 -4t4 -10z" />
    <glyph glyph-name="uniF069" unicode="&#xf069;" horiz-adv-x="237" 
d="M212 69q7 -4 8.5 -11t-2.5 -14l-9 -15q-4 -7 -11 -9t-14 2l-38 22v-44q0 -7 -5.5 -12.5t-12.5 -5.5h-18q-7 0 -13 5.5t-6 12.5v44l-38 -22q-7 -4 -14 -2t-11 9l-9 15q-4 7 -2 14.5t9 10.5l38 22l-38 22q-7 4 -8.5 11.5t1.5 13.5l9 16q4 7 11.5 9t13.5 -2l38 -22v44
q0 7 5.5 12.5t13.5 5.5h18q7 0 12.5 -5.5t5.5 -12.5v-44l38 22q7 4 14.5 2t10.5 -9l9 -16q4 -7 2 -14t-8 -11l-38 -22z" />
    <glyph glyph-name="uniF06A" unicode="&#xf06a;" 
d="M110 201q30 0 55 -14.5t39.5 -40t14.5 -55t-14.5 -55t-39.5 -40t-55 -14.5t-55.5 14.5t-40 40t-14.5 55t14.5 55t40 40t55.5 14.5zM128 23v27q0 2 -1.5 3.5t-2.5 1.5h-28q-2 0 -3.5 -1.5t-1.5 -3.5v-27q0 -2 1.5 -3.5t3.5 -1.5h28q2 0 3 1.5t1 3.5zM128 72l2 89q0 2 -1 2
q-1 1 -4 2h-31q-2 0 -3 -2l-2 -2l3 -89q0 -1 1 -2t3 -1h27q2 0 3.5 1t1.5 2z" />
    <glyph glyph-name="uniF06B" unicode="&#xf06b;" 
d="M133 26v8v67v27h-46v-27v-67v-8q0 -4 2.5 -6t6.5 -2h27q4 0 7 2t3 6zM67 146h28l-18 23q-4 4 -10 5q-6 0 -9.5 -4t-3.5 -10t3.5 -10t9.5 -4zM166 160q0 6 -4 10t-10 4t-10 -5l-18 -23h28q6 0 10 4t4 10zM219 123v-45q0 -2 -1 -3.5t-3 -1.5h-14v-59q0 -6 -4 -10t-10 -4
h-155q-6 0 -10 4t-4 10v59h-13q-2 0 -3.5 1.5t-1.5 3.5v45q0 2 1.5 3.5t3.5 1.5h62q-13 0 -22.5 9.5t-9.5 22.5t9.5 22.5t22.5 9.5q15 0 24 -11l19 -24l18 24q9 11 24 11q13 0 22.5 -9.5t9.5 -22.5t-9.5 -22.5t-22.5 -9.5h63q2 0 3 -1.5t1 -3.5z" />
    <glyph glyph-name="uniF06C" unicode="&#xf06c;" horiz-adv-x="256" 
d="M183 119q0 4 -3 6.5t-6 2.5q-25 0 -46 -7t-37 -19t-33 -32q-3 -3 -3 -6q0 -4 2.5 -6.5t6.5 -2.5q3 0 6 3q4 3 11 9.5t10 9.5q20 18 38.5 25.5t44.5 7.5q4 0 6.5 2.5t2.5 6.5zM256 147q0 -14 -3 -27q-7 -32 -26.5 -55t-50.5 -38t-63 -16q-21 0 -41 7q-2 1 -12.5 6t-13.5 5
q-2 0 -5.5 -4.5t-6.5 -10t-7.5 -10t-8.5 -4.5q-6 0 -9 2.5t-7 8.5q0 1 -0.5 2t-1 1t-0.5 1v2q0 5 4.5 10.5t9.5 9.5t9.5 8t4.5 7q0 1 -2 5.5t-2 6.5q-1 7 -1 15q0 16 6 31t17 26.5t24.5 20t28.5 13.5q8 3 21 4t26 1t25.5 0.5t23 3.5t16.5 8l4 4l4.5 4.5t4 3t5 2t6.5 0.5
q6 0 10 -6.5t6.5 -16t3.5 -18t1 -13.5z" />
    <glyph glyph-name="uniF06D" unicode="&#xf06d;" horiz-adv-x="201" 
d="M201 -23v-9q0 -2 -1.5 -3.5t-2.5 -1.5h-192q-2 0 -3.5 1.5t-1.5 3.5v9q0 2 1.5 3.5t3.5 1.5h192q2 0 3 -1.5t1 -3.5zM165 128q0 -11 -3.5 -20.5t-9.5 -16t-12.5 -12.5t-13.5 -11t-12.5 -10.5t-9 -12t-3.5 -13.5q0 -14 9 -32v0v0q-13 6 -23 12t-20 14t-16.5 17.5t-10 21.5
t-3.5 26q0 11 3.5 20.5t9 16.5t12.5 13t13.5 11t12.5 10t9.5 11.5t3.5 13.5q0 13 -10 32h1h-1q13 -6 23 -11.5t20 -14t16.5 -17.5t10.5 -21.5t4 -26.5z" />
    <glyph glyph-name="uniF06E" unicode="&#xf06e;" horiz-adv-x="256" 
d="M238 82q-22 34 -55 51q9 -15 9 -32q0 -26 -19 -45t-45 -19t-45 18.5t-19 45.5q0 17 9 32q-33 -17 -55 -51q19 -29 48 -46.5t62 -17.5t62 17.5t48 46.5zM135 137q0 3 -2 5t-5 2q-18 0 -30.5 -13t-12.5 -30q0 -3 2 -5t4.5 -2t4.5 2t2 5q0 12 9 20.5t21 8.5q3 0 5 2t2 5z
M256 82q0 -5 -3 -10q-20 -33 -53.5 -52.5t-71.5 -19.5t-71.5 20t-53.5 52q-3 5 -3 10t3 10q20 33 53.5 53t71.5 20t71.5 -20t53.5 -53q3 -5 3 -10z" />
    <glyph glyph-name="uniF070" unicode="&#xf070;" horiz-adv-x="256" 
d="M79 29l11 20q-12 9 -19 22.5t-7 29.5q0 17 9 32q-33 -17 -55 -51q24 -36 61 -53zM135 137q0 3 -2 5t-5 2q-18 0 -30.5 -13t-12.5 -30q0 -3 2 -5t4.5 -2t4.5 2t2 5q0 12 9 20.5t21 8.5q3 0 5 2t2 5zM187 164v-1q-15 -27 -45.5 -81t-45.5 -81l-7 -12q-1 -2 -4 -3
q-2 0 -19 10q-2 1 -2 4q0 2 6 13q-20 9 -37.5 24.5t-29.5 34.5q-3 4 -3 10t3 10q22 34 54.5 53.5t70.5 19.5q13 0 26 -3l7 14q1 2 4 2q1 0 3 -0.5t4.5 -2t4.5 -3t4.5 -2.5t2.5 -2q3 -2 3 -4zM192 101q0 -20 -11.5 -36.5t-29.5 -23.5l40 72q1 -6 1 -12zM256 82q0 -5 -3 -10
q-6 -9 -15 -20q-21 -25 -49.5 -38.5t-60.5 -13.5l11 19q30 3 55.5 19.5t43.5 43.5q-16 26 -41 42l9 16q14 -9 26.5 -21.5t20.5 -26.5q3 -5 3 -10z" />
    <glyph glyph-name="uniF071" unicode="&#xf071;" horiz-adv-x="256" 
d="M146 23v27q0 2 -1 3.5t-3 1.5h-28q-2 0 -3 -1.5t-1 -3.5v-27q0 -2 1 -3.5t3 -1.5h28q2 0 3 1.5t1 3.5zM146 76l3 66q0 2 -2 3q-2 2 -3 1h-32q-2 0 -3 -1t-2 -3l3 -66q0 -1 1.5 -2t3.5 -1h26q2 0 3.5 1t1.5 2zM144 210l110 -201q5 -9 -1 -18q-2 -4 -6 -6.5t-9 -2.5h-220
q-5 0 -9 2.5t-6 6.5q-5 9 -1 18l110 201q2 4 6.5 6.5t9.5 2.5t9.5 -2.5t6.5 -6.5z" />
    <glyph glyph-name="uniF072" unicode="&#xf072;" horiz-adv-x="201" 
d="M197 197q6 -7 1.5 -21t-15.5 -25l-23 -23l23 -100q1 -3 -2 -4l-18 -14q-1 -1 -3 -1h-1q-2 0 -3 3l-40 72l-37 -37l8 -28q1 -2 -1 -4l-14 -14q-1 -1 -3 -1h-1q-2 0 -3 2l-27 36l-36 27q-2 1 -2 3t1 4l14 14q1 1 3 1h1l28 -8l37 37l-72 40q-2 1 -3 3q0 2 1 4l19 19q2 2 4 1
l95 -23l23 23q11 11 25 15.5t21 -1.5z" />
    <glyph glyph-name="uniF073" unicode="&#xf073;" horiz-adv-x="237" 
d="M18 -18h41v41h-41v-41zM69 -18h45v41h-45v-41zM18 32h41v46h-41v-46zM69 32h45v46h-45v-46zM18 87h41v41h-41v-41zM123 -18h46v41h-46v-41zM69 87h45v41h-45v-41zM178 -18h41v41h-41v-41zM123 32h46v46h-46v-46zM73 155v42q0 2 -1.5 3t-2.5 1h-10q-2 0 -3 -1.5t-1 -2.5
v-42q0 -2 1.5 -3t2.5 -1h10q2 0 3 1t1 3zM178 32h41v46h-41v-46zM123 87h46v41h-46v-41zM178 87h41v41h-41v-41zM183 155v42q0 2 -1.5 3t-3.5 1h-9q-2 0 -3 -1.5t-1 -2.5v-42q0 -2 1 -3t3 -1h9q2 0 3.5 1t1.5 3zM238 165v-183q0 -7 -5.5 -13t-13.5 -6h-201q-7 0 -12.5 5.5
t-5.5 13.5v183q0 7 5.5 12.5t12.5 5.5h19v14q0 9 6.5 15.5t15.5 6.5h10q9 0 15.5 -6.5t6.5 -15.5v-14h55v14q0 9 7 15.5t16 6.5h9q9 0 16 -6.5t7 -15.5v-14h18q7 0 13 -5.5t6 -12.5z" />
    <glyph glyph-name="uniF074" unicode="&#xf074;" horiz-adv-x="256" 
d="M95 151q-9 -13 -19 -39q-3 6 -5.5 10t-6 9t-7 8t-9 5t-11.5 2h-32q-2 0 -3.5 1.5t-1.5 3.5v27q0 2 1.5 3.5t3.5 1.5h32q35 0 58 -32zM256 37q0 -2 -1 -4l-46 -45q-1 -1 -3 -2q-2 0 -3.5 1.5t-1.5 3.5v27h-12.5h-11.5h-10t-10 0.5t-9.5 1.5t-9 3t-8 4.5t-8.5 5.5t-8 7.5
t-8 9.5q8 13 20 39l5 -10t5.5 -9t7.5 -8t9 -5t12 -2h36v27q0 2 1.5 3.5t3.5 1.5t3 -2l46 -45q1 -1 1 -3zM256 165q0 -2 -1 -4l-46 -45q-1 -1 -3 -2q-2 0 -3.5 1.5t-1.5 3.5v27h-36q-7 0 -12.5 -2t-10 -6.5t-7.5 -9t-6 -10.5q-5 -9 -12 -25q-4 -9 -7 -15.5t-7.5 -15t-9 -14
t-10.5 -12t-13 -10t-15.5 -6t-17.5 -2.5h-32q-2 0 -3.5 1.5t-1.5 3.5v27q0 2 1.5 3.5t3.5 1.5h32q7 0 12.5 2t9.5 6.5t7 9l7 10.5q5 9 11 25q4 9 7 15.5t7.5 15t9 14.5t10.5 12t13 9.5t15.5 6t18.5 2.5h36v27q0 2 1.5 3.5t3.5 1.5t3 -2l46 -45q1 -1 1 -3z" />
    <glyph glyph-name="uniF075" unicode="&#xf075;" horiz-adv-x="256" 
d="M256 91.5q0 -24.5 -17 -46t-46.5 -33.5t-64.5 -12q-10 0 -21 1q-28 -25 -65 -34q-7 -2 -17 -4q-2 0 -4 1.5t-3 4.5v0v2l1 1l1 2v1l1 1l1 1q1 1 4.5 5t5 5.5t4.5 5.5t4.5 7.5t4 8.5t3.5 11q-22 13 -35 31.5t-13 39.5q0 19 10 36t27.5 29t41 19.5t49.5 7.5q35 0 64.5 -12.5
t46.5 -33.5t17 -45.5z" />
    <glyph glyph-name="uniF076" unicode="&#xf076;" 
d="M219 101v-19q0 -29 -14 -51.5t-39 -35.5t-56.5 -13t-56.5 13t-39 36t-14 51v19q0 4 2.5 6.5t6.5 2.5h55q4 0 6.5 -3t2.5 -6v-19q0 -7 3.5 -12.5t7.5 -8t10 -4.5t9.5 -2h6.5h6t9 2t10.5 4.5t7.5 8t3 12.5v19q0 4 3 6.5t6 2.5h55q4 0 6.5 -2.5t2.5 -6.5zM73 192v-55
q0 -4 -2.5 -6.5t-6.5 -2.5h-55q-4 0 -6.5 2.5t-2.5 6.5v55q0 4 2.5 6.5t6.5 2.5h55q4 0 6.5 -2.5t2.5 -6.5zM219 192v-55q0 -4 -2.5 -6.5t-6.5 -2.5h-55q-4 0 -6.5 2.5t-2.5 6.5v55q0 4 3 6.5t6 2.5h55q4 0 6.5 -2.5t2.5 -6.5z" />
    <glyph glyph-name="uniF077" unicode="&#xf077;" horiz-adv-x="256" 
d="M240 29l-23 -23q-3 -3 -6.5 -3t-6.5 3l-76 76l-76 -76q-3 -3 -6.5 -3t-6.5 3l-23 23q-3 3 -3 7t3 6l106 106q3 3 6.5 3t5.5 -3l106 -106q3 -3 3 -6.5t-3 -6.5z" />
    <glyph glyph-name="uniF078" unicode="&#xf078;" horiz-adv-x="256" 
d="M240 104l-106 -106q-3 -3 -6.5 -3t-5.5 3l-106 106q-3 3 -3 6.5t3 6.5l23 24q3 3 6.5 2.5t6.5 -2.5l76 -76l76 76q3 3 6.5 2.5t6.5 -2.5l23 -24q3 -3 3 -6.5t-3 -6.5z" />
    <glyph glyph-name="uniF079" unicode="&#xf079;" horiz-adv-x="274" 
d="M183 5q0 -2 -1.5 -3.5t-3.5 -1.5h-137q-1 0 -2 0.5t-1.5 1t-0.5 1v1.5v1.5v2.5v1v23v59h-28q-4 0 -6.5 3t-2.5 7q0 3 2 5l46 55q3 3 7 3t7 -3l46 -55q2 -2 2 -5q0 -4 -3 -7t-6 -3h-28v-54h82q2 0 4 -2l23 -27q1 -1 1 -3zM274 64q0 -3 -2 -6l-46 -55q-3 -3 -7 -3t-7 3
l-45 55q-2 2 -2 6t2.5 6.5t6.5 2.5h27v55h-82q-2 0 -4 2l-23 27q-1 1 -1 3t1.5 3.5t3.5 1.5h137q1 0 2 -0.5t1.5 -1t0.5 -1t0.5 -2t0.5 -2v-1.5v-2v-22v-60h27q4 0 6.5 -2.5t2.5 -6.5z" />
    <glyph glyph-name="uniF07A" unicode="&#xf07a;" horiz-adv-x="237" 
d="M91 0q0 -7 -5 -12.5t-12.5 -5.5t-13 5.5t-5.5 12.5t5.5 12.5t13 5.5t12.5 -5.5t5 -12.5zM219 0q0 -7 -5 -12.5t-12.5 -5.5t-13 5.5t-5.5 12.5t5.5 12.5t13 5.5t12.5 -5.5t5 -12.5zM238 155v-73q0 -3 -2.5 -5.5t-5.5 -3.5l-150 -17q2 -9 2 -10q0 -2 -3 -9h131q4 0 6.5 -3
t2.5 -6.5t-2.5 -6.5t-6.5 -3h-146q-4 0 -6.5 3t-2.5 6q0 2 1 5t2 5t3 5.5t3 4.5l-26 118h-29q-4 0 -6.5 2.5t-2.5 6t2.5 6.5t6.5 3h37q2 0 4 -1t3 -2.5t1.5 -3.5t1 -3.5t1 -4t0.5 -3.5h172q4 0 6.5 -3t2.5 -7z" />
    <glyph glyph-name="uniF07B" unicode="&#xf07b;" horiz-adv-x="237" 
d="M238 133v-101q0 -13 -9.5 -22.5t-22.5 -9.5h-174q-13 0 -22.5 9.5t-9.5 22.5v137q0 13 9.5 22.5t22.5 9.5h46q13 0 22.5 -9.5t9.5 -22.5v-4h96q13 0 22.5 -9.5t9.5 -22.5z" />
    <glyph glyph-name="uniF07C" unicode="&#xf07c;" horiz-adv-x="274" 
d="M268 83q0 -4 -4 -9l-48 -57q-6 -7 -17 -12t-21 -5h-155q-5 0 -9 2t-4 6t5 9l48 57q6 7 17 12t21 5h155q5 0 8.5 -2t3.5 -6zM219 133v-23h-118q-13 0 -28 -7t-24 -17l-48 -57l-1 -1v2v2v137q0 13 9.5 22.5t22.5 9.5h46q13 0 22.5 -9.5t9.5 -22.5v-4h77q13 0 22.5 -9.5
t9.5 -22.5z" />
    <glyph glyph-name="uniF07D" unicode="&#xf07d;" horiz-adv-x="109" 
d="M101 173.5q0 -3.5 -3 -6t-7 -2.5h-18v-147h18q4 0 7 -2.5t3 -6.5t-3 -6l-37 -37q-3 -3 -6.5 -3t-6.5 3l-36 37q-3 3 -3 6.5t3 6t6 2.5h19v147h-19q-4 0 -6.5 2.5t-2.5 6t3 6.5l36 37q3 3 7 2.5t6 -2.5l37 -37q3 -3 3 -6.5z" />
    <glyph glyph-name="uniF07E" unicode="&#xf07e;" horiz-adv-x="256" 
d="M256 91.5q0 -3.5 -3 -6.5l-36 -37q-3 -3 -6.5 -2.5t-6.5 3t-3 6.5v18h-146v-18q0 -4 -3 -6.5t-6.5 -2.5t-6.5 2l-36 37q-3 3 -3 6.5t3 6.5l36 36q3 3 6.5 3t6.5 -2.5t3 -6.5v-18h146v18q0 4 3 6.5t6.5 2.5t6.5 -3l36 -36q3 -3 3 -6.5z" />
    <glyph glyph-name="uniF080" unicode="&#xf080;" horiz-adv-x="292" 
d="M91 91v-73h-36v73h36zM146 165v-147h-36v147h36zM293 0v-18h-293v219h18v-201h275zM201 128v-110h-36v110h36zM256 183v-165h-37v165h37z" />
    <glyph glyph-name="uniF081" unicode="&#xf081;" 
d="M183 132q-8 -4 -17 -5q10 6 13 17q-9 -5 -19 -7q-9 9 -22 9q-12 0 -21 -8.5t-9 -21.5q0 -4 1 -7q-18 1 -34.5 9.5t-27.5 22.5q-4 -7 -5 -15q0 -16 13 -25q-7 0 -14 3v0q0 -11 7 -19t18 -10q-4 -1 -7 -1h-6q3 -9 10.5 -15t17.5 -6q-17 -13 -37 -13q-4 0 -7 1
q21 -13 46 -14q16 0 30 5.5t24 14t17 19.5t10.5 23t3.5 24v4q9 6 15 15zM219 160v-137q0 -17 -12 -29t-29 -12h-137q-17 0 -29 12t-12 29v137q0 17 12 29t29 12h137q17 0 29 -12t12 -29z" />
    <glyph glyph-name="uniF082" unicode="&#xf082;" 
d="M178 201q17 0 29 -12t12 -29v-137q0 -17 -12 -29t-29 -12h-27v85h29l4 33h-33v21q0 8 3.5 12t13.5 4h17v30q-9 1 -25 1q-19 0 -31 -11.5t-12 -32.5v-24h-28v-33h28v-85h-76q-17 0 -29 12t-12 29v137q0 17 12 29t29 12h137z" />
    <glyph glyph-name="uniF083" unicode="&#xf083;" horiz-adv-x="256" 
d="M133 101q0 2 -1.5 3t-3.5 1q-9 0 -16 -6.5t-7 -16.5q0 -2 1.5 -3t3.5 -1t3 1t1 3q0 6 4 10t10 4q2 0 3.5 1.5t1.5 3.5zM165 82q0 -15 -11 -26t-26 -11t-26 11t-11 26t11 26t26 11t26 -11t11 -26zM18 0h220v18h-220v-18zM183 82q0 23 -16 39t-39 16t-39 -16t-16 -39
t16 -39t39 -16t39 16t16 39zM37 174h54v18h-54v-18zM18 146h220v17v20h-119l-9 -18h-92v-19zM256 183v-183q0 -8 -5.5 -13t-12.5 -5h-220q-8 0 -13 5t-5 13v183q0 8 5.5 13t12.5 5h220q8 0 13 -5t5 -13z" />
    <glyph glyph-name="uniF084" unicode="&#xf084;" horiz-adv-x="256" 
d="M119 146.5q0 11.5 -8 19.5t-19.5 8t-19.5 -8t-8 -20q0 -6 3 -12q-6 3 -12 3q-11 0 -19.5 -8t-8.5 -19.5t8 -19.5t19.5 -8t19.5 8t8 20q0 6 -2 12q6 -3 11 -3q11 0 19.5 8t8.5 19.5zM240 46q0 -2 -7 -9.5t-9 -7.5q-1 0 -4 2.5t-5.5 5l-5.5 5.5t-3 4l-14 -14l31 -31
q4 -4 4 -10t-5.5 -11.5t-11.5 -5.5t-9 4l-96 96q-25 -19 -52 -19q-23 0 -38 14.5t-15 37.5t13.5 45t35.5 35.5t45 13.5t37.5 -14.5t14.5 -37.5q0 -27 -18 -53l50 -50l14 13l-4 3q-3 4 -5.5 6.5t-4.5 5t-2 4.5t7 9t9 7t3 -1t7 -6.5t12 -11.5t12 -12.5t10 -11t4 -5.5z" />
    <glyph glyph-name="uniF085" unicode="&#xf085;" horiz-adv-x="274" 
d="M128 91.5q0 15.5 -10.5 26t-26 10.5t-26 -10.5t-10.5 -26t10.5 -26t26 -10.5t26 10.5t10.5 26zM238 18q0 7 -5.5 13t-13 6t-13 -5.5t-5.5 -13.5t5.5 -13t13 -5t13 5t5.5 13zM238 165q0 7 -5.5 12.5t-13 5.5t-13 -5.5t-5.5 -12.5q0 -8 5.5 -13.5t13 -5.5t13 5.5t5.5 13.5z
M183 104v-26q0 -1 -1 -2.5t-2 -1.5l-23 -4q-2 -5 -4 -11q5 -7 13 -16q1 -2 1 -3q0 -2 -1 -3q-3 -4 -12 -12.5t-11 -8.5t-3 1l-17 13q-5 -3 -11 -4q-2 -15 -3 -23q-1 -3 -4 -3h-27q-2 0 -3 1t-1 3l-3 21q-5 1 -11 5l-17 -13q-1 -1 -3 -1t-3 1q-21 19 -20 23q0 1 1 3t5.5 7.5
t6.5 8.5q-3 6 -5 12l-22 3q-1 0 -2 1.5t-1 2.5v27q0 1 1 2.5t2 1.5l22 4q2 5 5 10q-5 7 -13 17q-1 2 -1 3q0 2 1 3q3 4 11.5 12.5t11.5 8.5q2 0 3 -1l17 -13q5 3 11 4q2 15 3 22q1 3 4 4h27q2 0 3 -1t1 -3l3 -22q5 -1 11 -4l17 13q1 1 3 1t3 -1q21 -19 20 -23q0 -1 -1 -3
q-2 -2 -6 -7.5t-6 -8.5q3 -7 5 -12l21 -3q1 0 2.5 -1.5t1.5 -3.5zM274 28v-20q0 -2 -21 -4l-4 -8q7 -16 7 -19q0 -1 -1 -1l-17 -10q-1 0 -6.5 6.5t-7.5 9.5h-4.5h-4.5q-2 -3 -7.5 -9.5t-6.5 -6.5l-18 10q-1 0 0 1q0 4 7 19q-3 4 -4 8q-21 2 -21 4v20q0 2 21 5q2 4 4 7
q-7 16 -7 20v1q1 0 5.5 2.5t8.5 4.5l4 3q1 0 6.5 -6.5t7.5 -9.5h4.5h4.5q7 10 13 16h1q1 0 17 -10q1 0 1 -1q0 -4 -7 -20q2 -3 4 -7q21 -3 21 -5zM274 175v-20q0 -2 -21 -5q-2 -4 -4 -7q7 -16 7 -20q0 -1 -1 -1l-17 -10q-1 0 -6.5 6.5t-7.5 9.5h-4.5h-4.5q-2 -3 -7.5 -9.5
t-6.5 -6.5l-18 10q-1 0 0 1q0 4 7 20q-3 4 -4 7q-21 2 -21 5v20q0 2 21 4q2 4 4 7q-7 16 -7 20v1q1 0 5.5 3t8.5 5l4 2q1 0 6.5 -6.5t7.5 -9.5h4.5h4.5q7 10 13 16h1q1 0 17 -10q1 0 1 -1q0 -4 -7 -20q2 -3 4 -7q21 -2 21 -4z" />
    <glyph glyph-name="uniF086" unicode="&#xf086;" horiz-adv-x="256" 
d="M201 110q0 -20 -13.5 -37t-36.5 -26.5t-50 -9.5q-12 0 -26 2q-18 -13 -39 -18q-5 -1 -13 -3v0q-2 0 -3 1.5t-2 2.5v1v1.5v1.5h1h1v1.5v0.5l1 1l3.5 3.5t3.5 4t3.5 4t4 5.5t2.5 6q-18 10 -28 25.5t-10 32.5q0 20 13.5 36.5t36.5 26.5t50.5 10t50.5 -10t36.5 -26.5
t13.5 -36.5zM256 73q0 -17 -10 -32t-28 -25q1 -3 2.5 -6t4 -6t3.5 -4.5t3.5 -4l3.5 -3.5h1v-1v-1q1 0 1 -0.5t0.5 -1t0.5 -1v-1.5v0q0 -2 -2 -3t-3 -1q-7 1 -13 2q-22 6 -39 18q-13 -2 -26 -2q-39 0 -67 19q8 -1 13 -1q23 0 44 6.5t37 18.5q18 13 27.5 30.5t9.5 36.5
q0 11 -3 21q18 -10 29 -25t11 -33z" />
    <glyph glyph-name="uniF087" unicode="&#xf087;" 
d="M37 27.5q0 3.5 -3 6.5t-6.5 3t-6.5 -3t-3 -6.5t3 -6.5t6.5 -3t6.5 3t3 6.5zM201 110q0 7 -5.5 12.5t-12.5 5.5h-50q0 8 6.5 22.5t6.5 23.5q0 14 -4.5 20.5t-18.5 6.5q-4 -4 -5.5 -12t-4 -17.5t-8.5 -16.5q-3 -3 -11 -13q-1 -1 -3.5 -4t-4 -5.5t-5 -6.5t-6 -6.5t-5.5 -5
t-5.5 -3.5t-5.5 -1h-4v-92h4q2 0 5 -0.5t5 -1t5 -1.5t5 -1.5t5.5 -1.5t3.5 -2q30 -10 49 -10h17q27 0 28 24q0 4 -1 8q4 2 6.5 7.5t2.5 10.5t-2 10q8 7 7 17q0 4 -1 8t-4 6q5 0 8 7t3 12zM219 110q0 -13 -7 -23l2 -10q0 -11 -6 -21q0 -3 1 -6q0 -14 -9 -25q0 -20 -12 -31.5
t-32 -11.5h-6h-13q-14 0 -27 3t-31 9q-17 6 -20 6h-41q-8 0 -13 5.5t-5 12.5v92q0 8 5.5 13t12.5 5h39q5 3 20 22q8 11 15 18q3 4 5 12.5t4.5 18t9.5 15.5q6 5 12 5q12 0 22 -4.5t15 -14.5t5 -26q0 -13 -7 -28h25q15 0 25.5 -10.5t10.5 -25.5z" />
    <glyph glyph-name="uniF088" unicode="&#xf088;" 
d="M37 155.5q0 3.5 -3 6.5t-6.5 3t-6.5 -3t-3 -6.5t3 -6.5t6.5 -3t6.5 3t3 6.5zM201 73q0 5 -3 11.5t-8 6.5q2 2 3.5 7t1.5 8q0 10 -7 17q3 4 2 10q0 5 -2.5 10.5t-6.5 7.5q1 4 1 8q0 12 -7 18t-20 6h-18q-19 0 -49 -11q-1 0 -4 -1t-5 -1.5t-5 -2t-5 -2t-5 -0.5h-5h-4v-92h4
q2 0 5 -1t6 -4l5.5 -5.5l6 -6t5 -6t4.5 -6t3 -4.5q8 -10 11 -13q6 -6 8.5 -15.5t4.5 -18t5 -11.5q14 0 18.5 6.5t4.5 20.5q0 8 -6.5 23t-6.5 23h50q7 0 12.5 5.5t5.5 12.5zM219 73q0 -15 -10.5 -25.5t-25.5 -10.5h-25q7 -14 7 -28q0 -17 -5 -26q-5 -10 -15 -15t-22 -5
q-7 0 -12 6q-5 5 -8 11.5t-4 12.5t-2.5 12.5t-4.5 9.5q-7 7 -15 18q-14 19 -20 22h-39q-8 0 -13 5.5t-5 12.5v92q0 8 5.5 13t12.5 5h41q3 0 20 6q18 6 32 9t29 3h16q20 0 32 -11t12 -31v-1q9 -11 9 -25q0 -3 -1 -6q5 -10 6 -21q0 -5 -2 -10q7 -10 7 -23z" />
    <glyph glyph-name="uniF089" unicode="&#xf089;" horiz-adv-x="128" 
d="M119 215v-191l-64 -34q-3 -2 -6 -2t-4.5 2t-1.5 5v3l13 72l-52 50q-4 4 -4 7q0 5 8 7l72 10l32 65q3 6 7 6z" />
    <glyph glyph-name="uniF08A" unicode="&#xf08a;" horiz-adv-x="256" 
d="M238 134q0 12 -3 21t-8 14t-12 8.5t-13.5 4.5t-14 1t-16 -3.5t-15.5 -9t-12.5 -10.5t-8.5 -9q-3 -3 -7 -3t-7 3q-3 4 -8.5 9t-12.5 10.5t-15.5 9t-16 3.5t-14 -1t-13.5 -4.5t-12 -8.5t-8 -14t-3 -21q0 -24 27 -50l83 -80l83 79q27 27 27 51zM256 134q0 -32 -33 -64
l-89 -86q-3 -3 -6.5 -2.5t-5.5 2.5l-89 86l-4 4t-8.5 9.5t-9.5 13.5t-7.5 17.5t-3.5 19.5q0 31 18 49t50 18q9 0 18.5 -3t17 -8t13.5 -10t11 -10q5 5 11 10t13.5 10t17 8t18.5 3q32 0 50 -18t18 -49z" />
    <glyph glyph-name="uniF08B" unicode="&#xf08b;" horiz-adv-x="237" 
d="M91 14q0 -1 0.5 -3t0.5 -3.5t-0.5 -3.5t-1.5 -3t-3 -1h-46q-17 0 -29 12t-12 29v101q0 17 12 29t29 12h46q2 0 3 -1.5t1 -3.5q0 -1 0.5 -3t0.5 -3.5t-0.5 -3.5t-1.5 -2.5t-3 -0.5h-46q-9 0 -16 -7t-7 -16v-101q0 -9 7 -16t16 -7h41h2h1.5h2t1.5 -0.5t1 -1t1 -1v-1.5z
M224 91.5q0 -3.5 -3 -6.5l-77 -78q-3 -3 -7 -2.5t-6.5 3t-2.5 6.5v41h-64q-4 0 -6.5 2.5t-2.5 6.5v55q0 4 2.5 6.5t6.5 2.5h64v41q0 4 2.5 6.5t6.5 2.5t7 -2l77 -78q3 -3 3 -6.5z" />
    <glyph glyph-name="uniF08C" unicode="&#xf08c;" 
d="M34 17h33v100h-33v-100zM69 147q0 7 -5 12t-13.5 5t-13.5 -4.5t-5 -12.5q0 -7 5 -12t13 -5v0q8 0 13.5 5t5.5 12zM153 17h33v57q0 22 -10.5 33.5t-27.5 11.5q-19 0 -30 -17v0v15h-33v-100h33v56q0 5 1 8q2 5 6.5 8.5t10.5 3.5q17 0 17 -23v-53zM219 160v-137
q0 -17 -12 -29t-29 -12h-137q-17 0 -29 12t-12 29v137q0 17 12 29t29 12h137q17 0 29 -12t12 -29z" />
    <glyph glyph-name="uniF08D" unicode="&#xf08d;" horiz-adv-x="164" 
d="M69 96v64q0 2 -1.5 3.5t-3.5 1.5t-3.5 -1.5t-1.5 -3.5v-64q0 -2 1.5 -3.5t3.5 -1.5t3.5 1.5t1.5 3.5zM165 46q0 -4 -3 -6.5t-7 -2.5h-61l-7 -69q0 -2 -1.5 -3.5t-3.5 -1.5v0q-4 0 -4 4l-11 70h-58q-4 0 -6.5 2.5t-2.5 6.5q0 18 11 31.5t26 13.5v74q-7 0 -13 5t-6 12.5
t5.5 13t13.5 5.5h91q7 0 12.5 -5.5t5.5 -13t-5.5 -12.5t-12.5 -5v-74q14 0 25.5 -13.5t11.5 -31.5z" />
    <glyph glyph-name="uniF08E" unicode="&#xf08e;" horiz-adv-x="256" 
d="M201 87v-46q0 -17 -12 -29t-29 -12h-119q-17 0 -29 12t-12 29v119q0 17 12 29t29 12h101q2 0 3 -1t1 -3v-10q0 -2 -1 -3t-3 -1h-101q-9 0 -16 -7t-7 -16v-119q0 -9 7 -16t16 -7h119q9 0 16 7t7 16v46q0 2 1 3t3 1h10q2 0 3 -1t1 -3zM256 210v-73q0 -4 -2.5 -6.5
t-6.5 -2.5t-7 3l-25 25l-93 -93q-1 -1 -3 -1.5t-3 1.5l-17 16q-1 1 -1 3t1 4l93 93l-25 25q-3 3 -2.5 6.5t3 6t6.5 2.5h73q4 0 6.5 -2.5t2.5 -6.5z" />
    <glyph glyph-name="uniF090" unicode="&#xf090;" 
d="M169 91.5q0 -3.5 -3 -6.5l-77 -78q-3 -3 -6.5 -2.5t-6.5 3t-3 6.5v41h-64q-4 0 -6.5 2.5t-2.5 6.5v55q0 4 2.5 6.5t6.5 2.5h64v41q0 4 3 6.5t6.5 2.5t6.5 -2l77 -78q3 -3 3 -6.5zM219 142v-101q0 -17 -12 -29t-29 -12h-45q-2 0 -3.5 1.5t-1.5 3.5v3v3.5t0.5 3t1.5 2.5
t3 1h45q9 0 16 7t7 16v101q0 9 -6.5 16t-16.5 7h-41h-1h-2.5h-1.5h-1.5t-1 0.5t-1 1.5t-0.5 2v3v3.5t0.5 3.5t1.5 3t3 1h45q17 0 29 -12t12 -29z" />
    <glyph glyph-name="uniF091" unicode="&#xf091;" horiz-adv-x="237" 
d="M65 93q-11 23 -10 53h-37v-13q0 -11 13.5 -23.5t33.5 -16.5zM219 133v13h-36q0 -30 -11 -53q20 4 33.5 16.5t13.5 23.5zM238 151v-18q0 -10 -6 -20.5t-16 -19t-25 -14t-31 -6.5q-6 -8 -13 -13q-5 -5 -7.5 -10.5t-2.5 -12.5q0 -8 4.5 -13.5t13.5 -5.5q11 0 19.5 -6.5
t8.5 -16.5v-9q0 -2 -1.5 -3t-3.5 -1h-119q-2 0 -3 1t-1 3v9q0 10 8.5 16.5t18.5 6.5t14.5 5.5t4.5 13.5q0 7 -2.5 12.5t-7.5 10.5q-8 6 -14 13q-16 1 -30.5 6.5t-24.5 14t-16 18.5t-6 21v18q0 6 4 10t10 4h41v13q0 9 6.5 16t16.5 7h82q9 0 16 -6.5t7 -16.5v-13h41q6 0 10 -4
t4 -10z" />
    <glyph glyph-name="uniF092" unicode="&#xf092;" 
d="M74 48q1 1 0 2t-2 0t0 -2t2 0zM70 54q-1 1 -2 0t0 -1q1 -1 2 -1q1 1 0 2zM64 60v1q-1 0 -2 -1q0 -1 1 -1t1 1zM67 56v0v2q-1 1 -1.5 0.5t0.5 -1.5q0 -2 1 -1zM80 46q0 1 -2 1h-2q0 -1 2 -2q1 0 2 1zM86 45q0 1 -2 1q-1 0 -1.5 -1t1.5 -1t2 1zM91 46q0 1 -1.5 1t-1.5 -1
t1.5 -1t1.5 1zM183 91q0 30 -21.5 52t-52 22t-51.5 -21.5t-21 -52.5q0 -24 14 -43t36 -26q3 0 4 1t1 3q0 7 -1 13h-2t-5 -0.5t-7 0.5t-6 3t-4 6q-3 8 -8 10h-1q0 1 -1 2t-1 1.5t0.5 1t2.5 0.5q1 0 2.5 -0.5t4.5 -2t4 -5.5q2 -4 5.5 -6t6.5 -2t5.5 0.5t4.5 1.5q1 7 4 10
q-7 1 -12 3t-10 5.5t-8 10.5t-3 17q0 11 8 20q-3 9 0 19q3 1 8 -1t9 -4l3 -2q8 2 18.5 2t18.5 -2q2 1 4.5 2.5t7.5 3.5t8 1q4 -11 1 -19q8 -8 7 -20q0 -8 -2 -14t-5 -10t-7.5 -6.5t-9 -3.5t-9.5 -2q5 -4 5 -13v-13v-7q0 -2 1 -3t4 -1q22 7 36 26t14 43zM219 160v-137
q0 -17 -12 -29t-29 -12h-137q-17 0 -29 12t-12 29v137q0 17 12 29t29 12h137q17 0 29 -12t12 -29z" />
    <glyph glyph-name="uniF093" unicode="&#xf093;" horiz-adv-x="237" 
d="M183 9q0 4 -3 6.5t-6.5 2.5t-6 -2.5t-2.5 -6.5t2.5 -6.5t6 -2.5t6.5 2.5t3 6.5zM219 9q0 4 -2.5 6.5t-6 2.5t-6.5 -2.5t-3 -6.5t3 -6.5t6.5 -2.5t6 2.5t2.5 6.5zM238 41v-46q0 -6 -4 -9.5t-10 -3.5h-210q-6 0 -10 4t-4 9v46q0 6 4 10t10 4h61q3 -8 10 -13t16 -5h36
q9 0 16 5t10 13h61q6 0 10 -4t4 -10zM191 134q-2 -6 -8 -6h-37v-64q0 -4 -2.5 -6.5t-6.5 -2.5h-36q-4 0 -7 2.5t-3 6.5v64h-36q-6 0 -9 6q-2 6 2 10l64 64q3 3 7 2.5t6 -2.5l64 -64q4 -4 2 -10z" />
    <glyph glyph-name="uniF094" unicode="&#xf094;" 
d="M201 101q0 6 -1 16.5t-3 13.5q-2 4 -2.5 6.5t-1 5.5t-0.5 7q0 3 1 9.5t1 9.5q0 5 -2 8h-2q-3 0 -8.5 -0.5t-7.5 -0.5q-9 0 -25.5 3.5t-25.5 3.5q-6 0 -13 -1.5t-12 -3.5t-13 -5q-20 -8 -29 -15q-14 -10 -23 -26.5t-12.5 -34t-3.5 -35.5q0 -6 2 -17.5t2 -16.5
q0 -3 -1.5 -9.5t-1.5 -9.5t1.5 -5.5t4.5 -2.5t10.5 2t10.5 2q8 0 24 -2.5t25 -2.5q26 0 40 5q18 6 33.5 21.5t24 35t8.5 39.5zM219 102q0 -24 -10 -47t-28 -41t-40 -26q-18 -6 -46 -6q-8 0 -24.5 2t-24.5 2q-3 0 -10 -2t-11 -2q-10 0 -17.5 8t-7.5 18q0 3 2 9.5t2 9.5
q0 6 -2 17.5t-2 17.5q0 16 2.5 31t8 30t14.5 28t21 22q11 8 33 17q28 11 45 11q9 0 25.5 -3.5t24.5 -3.5q3 0 8.5 1t8.5 1q12 0 17 -7.5t5 -19.5q0 -3 -1 -9.5t-1 -9.5q0 -2 0.5 -3.5t0.5 -2.5t1 -3t1 -3q2 -6 3.5 -17t1.5 -19z" />
    <glyph glyph-name="uniF095" unicode="&#xf095;" horiz-adv-x="201" 
d="M201 42q0 -4 -1.5 -10l-2.5 -10q-3 -7 -18 -15q-13 -7 -26 -7q-4 0 -8 0.5t-8.5 2t-6.5 2t-7.5 2.5t-7.5 3q-14 5 -25 12q-18 11 -37.5 30.5t-30.5 37.5q-7 11 -12 25q0 1 -2.5 7t-3 8t-2 6.5t-2 8.5t-0.5 8q0 13 7 26q8 14 15 18q4 2 10 3t10 1h3q3 -1 8 -11
q2 -3 4.5 -8l4.5 -9t5 -8q0 -1 2 -3.5t3 -4.5t1 -4q0 -3 -4 -7.5t-9 -8t-9 -7.5t-4 -6q0 -1 1 -3.5t1.5 -3.5t2 -3t1.5 -3q11 -20 25 -33.5t33 -24.5l3 -1q2 -2 3 -2.5l3 -1.5t4 -1q3 0 6.5 4t7 9t8 9t7.5 4q2 0 4 -1t5 -3l3 -2q4 -2 8 -4.5t9 -5.5t8 -4q10 -5 11 -8v-3z
" />
    <glyph glyph-name="uniF096" unicode="&#xf096;" horiz-adv-x="201" 
d="M160 183h-119q-9 0 -16 -7t-7 -16v-119q0 -9 7 -16t16 -7h119q9 0 16 7t7 16v119q0 9 -7 16t-16 7zM201 160v-119q0 -17 -12 -29t-29 -12h-119q-17 0 -29 12t-12 29v119q0 17 12 29t29 12h119q17 0 29 -12t12 -29z" />
    <glyph glyph-name="uniF097" unicode="&#xf097;" horiz-adv-x="182" 
d="M165 183h-147v-178l61 58l12 13l13 -13l61 -58v178zM166 201q3 0 7 -1q5 -2 7.5 -6t2.5 -9v-184q0 -5 -3 -9t-7 -6q-3 -1 -7 -1q-7 0 -12 5l-63 60l-63 -60q-5 -5 -11 -5q-3 0 -7 1q-5 2 -7.5 6t-2.5 9v184q0 5 3 9t7 6q3 1 7 1h149z" />
    <glyph glyph-name="uniF098" unicode="&#xf098;" 
d="M183 49q0 2 -0.5 2.5t-2.5 2t-5.5 3.5l-7 4t-6.5 3.5t-4 2.5q-1 0 -3 1.5t-3.5 2t-2.5 0.5q-2 0 -5.5 -2.5t-6 -6t-5.5 -6.5t-5 -3q-1 0 -2 0.5l-2 1t-2.5 1t-2.5 1.5q-14 8 -24 18t-18 24l-1 2t-1.5 2.5t-1 2t-0.5 2.5q0 2 3 5t6.5 5.5t6.5 5.5t3 5q0 1 -1 3t-2.5 4
t-1.5 3t-2 4l-4 6t-3.5 6.5t-3.5 6t-2.5 3t-2.5 0.5q-7 0 -14 -4q-7 -3 -11.5 -13.5t-4.5 -18.5v-4.5t0.5 -4.5t1.5 -5t1.5 -4t1.5 -4.5t2 -4.5q9 -23 31 -45.5t45 -31.5q1 0 4.5 -1t5 -1.5l4.5 -1.5l4.5 -1.5t4 -1t5.5 -0.5q8 0 18.5 5t13.5 12t3 14zM219 160v-137
q0 -17 -12 -29t-29 -12h-137q-17 0 -29 12t-12 29v137q0 17 12 29t29 12h137q17 0 29 -12t12 -29z" />
    <glyph glyph-name="uniF099" unicode="&#xf099;" horiz-adv-x="237" 
d="M231 161q-10 -14 -23 -24v-6q0 -19 -5 -37t-16.5 -35t-26.5 -30t-36.5 -21t-46.5 -8q-39 0 -71 21q5 -1 11 -1q32 0 58 20q-15 0 -27 9t-16 23q5 -1 8 -1q6 0 12 2q-16 3 -26.5 15.5t-10.5 29.5v1q10 -5 21 -6q-9 6 -14.5 16t-5.5 22q0 13 6 23q17 -21 42 -33.5t53 -14.5
q-1 5 -1 11q0 19 13.5 32.5t32.5 13.5q20 0 34 -15q16 3 29 11q-5 -16 -20 -25q13 1 26 7z" />
    <glyph glyph-name="uniF09A" unicode="&#xf09a;" horiz-adv-x="146" 
d="M137 218v-38h-22q-12 0 -16.5 -5t-4.5 -16v-27h42l-6 -42h-36v-108h-44v108h-36v42h36v32q0 27 15 41t39 14q21 1 33 -1z" />
    <glyph glyph-name="uniF09B" unicode="&#xf09b;" 
d="M110 201q30 0 55 -14.5t39.5 -40t14.5 -55.5q0 -36 -20.5 -64.5t-54.5 -39.5q-4 -1 -5.5 1t-1.5 5v11v19q0 14 -7 20q8 1 14.5 2.5t13.5 5.5t11.5 9.5t7.5 15t3 21.5q0 17 -12 30q5 13 -1 29q-4 1 -11.5 -2t-12.5 -6l-6 -4q-13 4 -27 4t-28 -4q-2 2 -6 4.5t-12 5.5t-12 2
q-6 -16 -1 -29q-11 -12 -11 -30q0 -12 3 -21.5t7.5 -15t11.5 -9.5t13.5 -5.5t14.5 -2.5q-6 -5 -7 -15q-3 -1 -6.5 -2t-8.5 -1t-9.5 3.5t-7.5 8.5t-7 8t-7 3l-3 1q-3 0 -4 -1t-0.5 -2l1 -2t1.5 -1l1 -1q3 -1 6.5 -5t4.5 -8l1 -3q2 -5 6.5 -8.5t9.5 -4.5t10 -1h8l3 1v-13l1 -7
q0 -3 -2 -4.5t-6 -1.5q-33 11 -54 40t-21 64q0 30 14.5 55.5t40 40t55.5 14.5zM42 44q0 1 -1 1h-2q0 -1 1 -2q1 0 2 1zM46 39q1 1 0 2t-3 0q-1 -1 1 -2q1 -1 2 0zM50 32q1 1 0 3t-2 1t0 -3t2 -1zM56 26q1 1 0 3q-2 2 -3 0q-1 -1 0 -2q2 -2 3 -1zM64 23q0 2 -1 2q-2 1 -3 -1
t2 -2q1 -1 2 1zM73 22q0 2 -2 2t-2 -2t2 -2t2 2zM82 23q0 2 -3 2q-2 0 -2 -2t2.5 -1.5t2.5 1.5z" />
    <glyph glyph-name="uniF09C" unicode="&#xf09c;" horiz-adv-x="237" 
d="M238 137v-36q0 -4 -3 -7t-6 -3h-10q-4 0 -6.5 3t-2.5 7v36q0 15 -10.5 26t-25.5 11t-26 -11t-11 -26v-27h14q6 0 10 -4t4 -10v-82q0 -6 -4 -10t-10 -4h-137q-6 0 -10 4t-4 10v82q0 6 4 10t10 4h96v27q0 26 18.5 45t45 19t45.5 -19t19 -45z" />
    <glyph glyph-name="uniF09D" unicode="&#xf09d;" horiz-adv-x="274" 
d="M251 201q9 0 16 -6.5t7 -16.5v-173q0 -9 -6.5 -16t-16.5 -7h-228q-9 0 -16 6.5t-7 16.5v173q0 9 6.5 16t16.5 7h228zM23 183q-2 0 -3.5 -1.5t-1.5 -3.5v-32h238v32q0 2 -1.5 3.5t-3.5 1.5h-228zM251 0q2 0 3.5 1.5t1.5 3.5v86h-238v-86q0 -2 1.5 -3.5t3.5 -1.5h228z
M37 18v19h36v-19h-36zM91 18v19h55v-19h-55z" />
    <glyph glyph-name="uniF09E" unicode="&#xf09e;" horiz-adv-x="201" 
d="M55 27.5q0 -11.5 -8 -19.5t-19.5 -8t-19.5 8t-8 19.5t8 19.5t19.5 8t19.5 -8t8 -19.5zM128 10q0 -4 -2 -7q-3 -3 -7 -3h-19q-4 0 -6.5 2.5t-2.5 5.5q-3 33 -26.5 56t-56.5 27q-4 0 -6 2.5t-2 6.5v19q0 4 3 7q2 2 6 2h1q23 -2 43.5 -11.5t37.5 -25.5q16 -16 25.5 -37
t11.5 -44zM201 10q0 -4 -2 -7q-3 -3 -7 -3h-20q-4 0 -6.5 2.5t-3.5 6.5q-2 31 -14.5 58.5t-32.5 47.5t-48 33t-58 15q-4 0 -6.5 2.5t-2.5 6.5v20q0 4 3 7t6 2h1q37 -2 71 -17t61 -42t42 -61t17 -71z" />
    <glyph glyph-name="uniF0A0" unicode="&#xf0a0;" 
d="M149 45.5q0 -4.5 -3.5 -8t-8.5 -3.5t-8 3.5t-3 8t3 8t8 3.5t8.5 -3.5t3.5 -8zM185 45.5q0 -4.5 -3.5 -8t-8 -3.5t-8 3.5t-3.5 8t3.5 8t8 3.5t8 -3.5t3.5 -8zM201 23v46q0 2 -1.5 3t-2.5 1h-174q-2 0 -3.5 -1.5t-1.5 -2.5v-46q0 -2 1.5 -3.5t3.5 -1.5h174q2 0 3 1.5t1 3.5
zM25 91h169l-22 69q-1 2 -2.5 3.5t-3.5 1.5h-112q-2 0 -4 -1.5t-2 -3.5zM219 69v-46q0 -9 -6.5 -16t-15.5 -7h-174q-9 0 -16 6.5t-7 16.5v46q0 4 2 10l28 87q2 8 9 12.5t15 4.5h112q8 0 14.5 -5t8.5 -12l28 -87q2 -6 2 -10z" />
    <glyph glyph-name="uniF0A1" unicode="&#xf0a1;" horiz-adv-x="256" 
d="M238 128q8 0 13 -5.5t5 -13t-5.5 -13t-12.5 -5.5v-54q0 -7 -5.5 -13t-13.5 -6q-60 50 -116 55q-8 -3 -12.5 -10t-4.5 -14.5t6 -12.5q-3 -5 -3.5 -9.5t1 -8.5t5 -8t6.5 -7t9 -7q-4 -8 -16 -12t-24.5 -2t-18.5 8q-1 3 -4.5 12.5t-4.5 13.5t-3 12.5t-2.5 14.5t0.5 14t3 16
h-17q-9 0 -16 7t-7 16v27q0 9 6.5 16t16.5 7h68q62 0 128 55q7 0 13 -5.5t6 -12.5v-55zM219 42v136q-56 -43 -109 -49v-39q53 -5 109 -48z" />
    <glyph glyph-name="uniF0A2" unicode="&#xf0a2;" horiz-adv-x="256" 
d="M130 -23q0 2 -2 2q-8 0 -14.5 6.5t-6.5 14.5q0 2 -2 2t-2 -2q0 -10 7.5 -17.5t17.5 -7.5q2 0 2 2zM35 18h186q-38 43 -38 119q0 7 -3.5 15t-10 15t-17.5 11.5t-24 4.5t-24 -4.5t-17.5 -11.5t-10 -15t-3.5 -15q0 -76 -38 -119zM247 18q0 -7 -5.5 -12.5t-12.5 -5.5h-64
q0 -15 -11 -26t-26 -11t-26 11t-11 26h-64q-7 0 -12.5 5.5t-5.5 12.5q7 6 13 12.5t12.5 17t10.5 23t7 29.5t3 37q0 22 16.5 40.5t43.5 22.5q-1 3 -1 6q0 6 4 9.5t10 3.5t10 -4t4 -9q0 -3 -1 -6q27 -4 43.5 -22.5t16.5 -40.5q0 -20 3 -37t7 -29.5t10.5 -23t12.5 -17t13 -12.5
z" />
    <glyph glyph-name="uniF0A3" unicode="&#xf0a3;" 
d="M197 91l19 -19q4 -4 3 -10q-2 -6 -7 -7l-27 -7l7 -27q2 -6 -2 -10t-10 -2l-27 7l-7 -27q-1 -6 -7 -7h-3q-4 0 -7 3l-19 20l-20 -20q-4 -4 -10 -3q-6 2 -7 7l-7 27l-26 -7q-6 -2 -10 2t-3 10l8 27l-27 7q-6 1 -8 7q-1 6 3 10l20 19l-20 20q-4 4 -3 10q2 6 8 7l27 7l-8 26
q-2 6 3 10q4 4 10 3l26 -7l7 26q1 6 7 8t10 -3l20 -20l19 20q4 4 10 3t7 -8l7 -26l27 7q6 2 10 -3q4 -4 2 -10l-7 -26l27 -7q6 -1 7 -7t-3 -10z" />
    <glyph glyph-name="uniF0A4" unicode="&#xf0a4;" horiz-adv-x="256" 
d="M37 27.5q0 3.5 -3 6.5t-6.5 3t-6.5 -3t-3 -6.5t3 -6.5t6.5 -3t6.5 3t3 6.5zM238 110q0 7 -5.5 12.5t-13.5 5.5h-82q0 3 2 7t5 8t5 9.5t2 12.5q0 10 -6.5 14t-16.5 4q-3 0 -13 -20q-3 -6 -5 -9q-6 -9 -16 -21t-15 -15q-10 -8 -20 -8h-4v-92h4q10 0 24 -4.5l28 -9t26 -4.5
q27 0 27 24q0 4 -1 8q4 2 6.5 7.5t2.5 10.5t-2 10q8 7 7 17q0 4 -1.5 8t-3.5 6h47q7 0 13 6t6 13zM256 110q0 -15 -11 -26t-26 -11h-24q-1 -9 -5 -17v-6q0 -14 -8 -25q0 -20 -12.5 -31.5t-32.5 -11.5q-19 0 -46 10q-23 8 -32 8h-41q-8 0 -13 5.5t-5 12.5v92q0 8 5.5 13
t12.5 5h41q1 0 3 0.5t4 2t3.5 2.5t3 3t2.5 3.5t3 3.5l2 2q9 11 14 18q2 3 5 9t5.5 10.5t6 9t8 7t9.5 2.5q18 0 29.5 -9.5t11.5 -26.5q0 -10 -3 -19h53q15 0 26 -10.5t11 -25.5z" />
    <glyph glyph-name="uniF0A5" unicode="&#xf0a5;" horiz-adv-x="256" 
d="M197 18h4v92h-4q-5 0 -10 1.5t-9 5t-7 6.5t-7 8l-2 2q-10 12 -16 21q-2 3 -5 9l-1 3q-2 3 -3.5 5.5t-3 5.5t-3 4.5t-2.5 1.5q-10 0 -16.5 -4.5t-6.5 -13.5q0 -6 2 -12t5 -10t5 -8t2 -7h-82q-7 0 -13 -5.5t-6 -12.5t5.5 -13t13.5 -6h47q-2 -2 -3.5 -6.5t-1.5 -7.5
q0 -10 7 -17q-3 -5 -2.5 -10t3 -10.5t6.5 -7.5q-1 -3 0 -8q0 -12 6.5 -18t19.5 -6q12 0 26 4.5l28 9t24 4.5zM238 27.5q0 3.5 -3 6.5t-6.5 3t-6.5 -3t-3 -6.5t3 -6.5t6.5 -3t6.5 3t3 6.5zM256 110v-92q0 -8 -5.5 -13t-12.5 -5h-41q-8 0 -32 -8q-27 -10 -46 -10
q-20 0 -32.5 11t-12.5 31v1q-9 11 -8 25v6q-5 8 -5 17h-24q-15 0 -26 11t-11 26t11 25.5t26 10.5h53q-3 9 -3 19q0 17 11.5 26.5t29.5 9.5q5 0 9.5 -2.5t8 -7t6 -9t5.5 -10.5t5 -9q5 -8 14 -18l2 -2q2 -2 3 -3.5t2.5 -3.5t3 -3t3.5 -2.5t3.5 -2t3.5 -0.5h41q8 0 13 -5t5 -13
z" />
    <glyph glyph-name="uniF0A6" unicode="&#xf0a6;" 
d="M183 -9q0 4 -3 6.5t-6.5 2.5t-6 -2.5t-2.5 -6.5t2.5 -6.5t6 -2.5t6.5 2.5t3 6.5zM201 100q0 27 -24 27q-4 0 -8 -1q-2 4 -7 7t-10.5 3t-10.5 -3q-7 8 -17 8q-4 0 -8 -1.5t-6 -3.5v47q0 7 -5.5 12.5t-13.5 5.5q-7 0 -12.5 -5.5t-5.5 -12.5v-82q-3 0 -7 2t-7.5 4.5
t-9.5 4.5t-12 2q-10 0 -14.5 -6t-4.5 -17q0 -3 20 -12q6 -3 9 -6q9 -6 21 -16t15 -14q8 -10 8 -20v-5h92v5q0 10 4.5 23.5t9 27.5t4.5 26zM219 101q0 -19 -9 -46q-8 -23 -9 -32v-41q0 -8 -5.5 -13.5t-12.5 -5.5h-92q-8 0 -13 5.5t-5 13.5v41q0 1 -0.5 3t-2 3.5t-2.5 3
t-3 3.5l-3 3t-3 2.5t-3 2.5q-11 9 -18 14q-3 2 -9 4.5t-10.5 5t-9 6t-7 8t-2.5 9.5q0 18 9.5 30t27.5 12q10 0 18 -4v54q0 15 11 25.5t25 10.5q15 0 26 -10.5t11 -25.5v-24q9 -1 17 -6q3 0 6 1q14 0 26 -9q20 0 31 -12t11 -32z" />
    <glyph glyph-name="uniF0A7" unicode="&#xf0a7;" 
d="M201 82q0 12 -4.5 26.5t-9 28t-4.5 23.5v5h-92v-5q0 -5 -1.5 -9.5t-5 -9t-6.5 -7.5t-8 -7q-1 -1 -2 -1q-12 -10 -21 -16l-9 -6l-3 -2q-3 -1 -5.5 -2t-5 -2.5t-4.5 -3t-2 -3.5q0 -10 4.5 -16t14.5 -6q6 0 12 2t9.5 4.5t7.5 4.5t7 2v-82q0 -7 5.5 -12.5t12.5 -5.5t13 5.5
t6 12.5v47q7 -5 14 -5q10 0 17 8q5 -3 10.5 -3t10.5 2.5t7 7.5q3 -1 8 -1q12 0 18 7t6 19zM183 192q0 4 -3 6.5t-6.5 2.5t-6 -2.5t-2.5 -6.5t2.5 -6.5t6 -2.5t6.5 2.5t3 6.5zM219 83q0 -20 -11 -33t-31 -12v0q-11 -9 -26 -9h-6q-8 -4 -17 -5v-24q0 -15 -11 -26t-26 -11
t-25.5 11t-10.5 26v53q-8 -3 -18 -3q-17 0 -27 12t-10 29q0 5 2.5 10t7 8.5t9 5.5t10.5 5t9 5q8 5 18 14l2 2q3 2 4 3l3 3t3 3.5t2.5 3t2 3.5t0.5 3v41q0 8 5.5 13t12.5 5h92q8 0 13 -5t5 -13v-41q0 -8 9 -32q9 -27 9 -45z" />
    <glyph glyph-name="uniF0A8" unicode="&#xf0a8;" 
d="M183 82v19q0 4 -3 6.5t-6 2.5h-72l27 27q3 3 3 6.5t-3 6.5l-13 13q-3 3 -6.5 2.5t-6.5 -2.5l-52 -52l-13 -13q-3 -3 -2.5 -6.5t2.5 -6.5l13 -13l52 -52q3 -3 6.5 -2.5t6.5 2.5l13 13q3 3 3 7t-3 6l-27 27h72q4 0 6.5 2.5t2.5 6.5zM219 91.5q0 -29.5 -14.5 -55t-39.5 -40
t-55 -14.5t-55.5 14.5t-40 40t-14.5 55t14.5 55t40 40t55.5 14.5t55 -14.5t39.5 -40t14.5 -55z" />
    <glyph glyph-name="uniF0A9" unicode="&#xf0a9;" 
d="M184 91.5q0 3.5 -3 6.5l-13 13l-52 52q-3 3 -6.5 2.5t-6.5 -2.5l-13 -13q-3 -3 -2.5 -7t2.5 -6l27 -27h-71q-4 0 -6.5 -3t-2.5 -6v-19q0 -4 2.5 -6.5t6.5 -2.5h71l-27 -27q-3 -3 -2.5 -6.5t2.5 -6.5l13 -13q3 -3 7 -2.5t6 2.5l52 52l13 13q3 3 3 6.5zM219 91.5
q0 -29.5 -14.5 -55t-39.5 -40t-55 -14.5t-55.5 14.5t-40 40t-14.5 55t14.5 55t40 40t55.5 14.5t55 -14.5t39.5 -40t14.5 -55z" />
    <glyph glyph-name="uniF0AA" unicode="&#xf0aa;" 
d="M183 91.5q0 3.5 -2 6.5l-52 52l-13 13q-3 3 -6.5 2.5t-6.5 -2.5l-13 -13l-51 -52q-3 -3 -3 -6.5t3 -6.5l13 -13q3 -3 6.5 -2.5t5.5 2.5l27 27v-72q0 -4 3 -6.5t7 -2.5h18q4 0 6.5 3t2.5 6v72l27 -27q3 -3 6.5 -3t6.5 3l13 13q2 3 2 6.5zM219 91.5q0 -29.5 -14.5 -55
t-39.5 -40t-55 -14.5t-55.5 14.5t-40 40t-14.5 55t14.5 55t40 40t55.5 14.5t55 -14.5t39.5 -40t14.5 -55z" />
    <glyph glyph-name="uniF0AB" unicode="&#xf0ab;" 
d="M183 91q0 4 -2 7l-13 13q-3 3 -6.5 2.5t-6.5 -2.5l-27 -27v71q0 4 -2.5 7t-6.5 3h-18q-4 0 -7 -3t-3 -7v-71l-27 27q-3 3 -6.5 2.5t-5.5 -2.5l-13 -13q-3 -3 -3 -7t3 -6l51 -52l13 -13q3 -3 7 -2.5t6 2.5l13 13l52 52q2 2 2 6zM219 91.5q0 -29.5 -14.5 -55t-39.5 -40
t-55 -14.5t-55.5 14.5t-40 40t-14.5 55t14.5 55t40 40t55.5 14.5t55 -14.5t39.5 -40t14.5 -55z" />
    <glyph glyph-name="uniF0AC" unicode="&#xf0ac;" 
d="M110 201q30 0 55 -14.5t39.5 -40t14.5 -55t-14.5 -55t-39.5 -40t-55 -14.5t-55.5 14.5t-40 40t-14.5 55t14.5 55t40 40t55.5 14.5zM149 127l-1 -1l-2 -2v0q1 1 1 2v1q1 1 4 2q2 1 7 2t7 -1l1 2q2 1 3 1l2 1q2 0 2 1v3q-2 0 -2.5 1t-0.5 3l-1 -1q0 1 -0.5 1h-1.5h-2
t-1.5 0.5t-1.5 2.5v2q0 1 -2 2l-1 1l-1 1v1v0q-1 1 -1.5 1t-1 -0.5l-1.5 -1.5v-1v0h-1.5h-1t-0.5 -1h-1h-1q2 1 0 1q-1 1 -3 1q1 1 1 2t-1 1h1q0 1 -1 1.5t-2.5 1t-2.5 1.5t-4.5 1.5t-4.5 -0.5t-1 -1.5t1 -1.5v-2q0 -1 -1 -2t-1 -2t2 -2t2 -3q0 -1 -2 -2t-3 -2t0 -2.5
t2 -2.5v0q0 -1 -0.5 -1.5l-0.5 -0.5h-1l-1 -1q-2 -1 -3 1l-2 4q-1 4 -2 4q-3 1 -4 0q-1 2 -6 4q-4 1 -8 0q1 0 0 3q-1 2 -3 1q0 1 0.5 2.5t0.5 2.5q0 2 1 3l1 1q1 1 1 2l1 1q5 -1 7 2l2 2l1 2q1 1 2 1t3 -1h1q2 0 2.5 1.5t-1.5 2.5q2 0 1 3l-1 1q-2 1 -4 -1q-1 -1 0 -1
l-1 -2q-1 -1 -2.5 -2t-2.5 1v1q-1 2 -2 3q-1 0 -2 -3q0 1 -2 2.5t-3 1.5q3 2 -1 4q-1 1 -3 0.5t-3 -0.5q-1 -1 -1 -2t1 -1.5t1.5 -0.5h1.5l1 -1q2 -1 1 -2l-1 -1h-1.5t-0.5 -1v-2t-1 -2q-1 1 -1 3l-1 2q1 -1 -4 -1l-1 1q-1 0 -2.5 -0.5t-2.5 -0.5t-2 1t0 3v0q-1 0 -1.5 1.5
t-1.5 1.5q-7 -2 -13 -6h2t2 1l1 1q5 2 6 1l1 1q2 -2 3 -4q-1 1 -5 0l-3 -1q1 -2 1 -3q-1 0 -2 1l-2 2t-2 1h-3q-21 -11 -34 -32q1 -1 2 -1t1 -1.5v-2t2 0.5q1 -1 0 -2l6 -4q3 -2 3 -3q0 -2 -1 -3l-1 1q-1 1 -2 1q0 -1 0.5 -3t1.5 -1q-1 0 -1.5 -2.5t-0.5 -5.5v-3v0
q0 -2 1 -5t3 -3q-2 0 3 -6l1 -1l2 -1l2 -2t2 -1q1 -1 1.5 -3.5t1.5 -3.5q0 -1 1.5 -3t1.5 -3v0h-1q0 -1 2 -2t3 -2v-1v-2l1 -1q0 3 -3 9l-2 4q0 1 -1 2.5t-1 2.5l1 -1h1.5h1.5v-1q0 -1 0.5 -2.5t1.5 -2.5t2 -2.5t2 -2.5t2 -2.5t0 -1.5q1 0 2.5 -1.5t2.5 -3.5q1 -1 1.5 -3.5
t0.5 -3.5t1 -2t2 -1.5t2 -1.5h2q1 0 3 -1.5t3 -1.5q1 -1 2 -1t2 0.5t2 0.5q2 0 4 -2.5t3 -2.5q5 -3 8 -2v-1q0 -1 1 -2l2 -2v-1q1 -1 3 -2.5t2 -2.5q1 1 1 2q0 -1 1.5 -3t2.5 -2q2 0 2 5q-4 -2 -7 2l-1 1v1.5v1v1.5v0q1 0 1.5 0.5t0.5 1.5l-1 2q0 1 -1 3l-2 2q-1 -1 -2.5 -1
t-2.5 1v-1v0h-2v2v4q0 1 1 1.5t1.5 1.5t0.5 2t-1 1.5t-2 0.5q-3 0 -4 -3l-1 -2v-2h-1h-3.5h-3.5q-2 1 -3.5 4t-1.5 6q0 1 0.5 3.5t0.5 3.5t-1 4l1 1q1 1 2 1v1h1h1v1v0l-1 1h4h4q2 -2 3 0v1q-1 1 0 2q1 -4 4 -1h2q2 -1 3 -2h1q0 -1 0.5 -1h1t0.5 1q1 -2 2 -3q2 -6 3 -7h1.5
t0.5 1.5v2v1.5v1v3l-1 1q-2 0 -2.5 1.5t0.5 3t2 2.5l1 1q1 0 2.5 0.5t1.5 1.5q3 3 2 5q1 0 2 1h-1v1h-1q1 1 0 3q1 0 1 1t1 2q1 -2 3 -1q1 1 0 3q1 1 3 1.5t3 0.5t1 0.5v2.5v1q1 1 3 1l1 1l3 2v0q3 0 4 2t-1 3q0 1 -0.5 1.5t-1.5 0.5h1h2q2 1 -1 2q-2 1 -6 -1zM126 1
q29 5 50 27h-2l-2 2l-3 1q0 1 -0.5 1.5l-1 1l-1.5 1.5l-2 1h-1q-1 1 -1 1.5t-1 1t-1.5 0t-1.5 -0.5v0v0q-1 0 -1.5 -0.5t-1 -0.5t0.5 0q-3 2 -6 3q-1 0 -1.5 0.5l-1 1t-1.5 0.5t-2 -1t-1 -3v-1q-1 1 0 2.5t0 2.5q0 1 -1 0.5t-1.5 -0.5t-1.5 -1t-1.5 -1t-1.5 -1l-1 -1
q0 -1 -0.5 -2t-1.5 -1q0 1 -1 1h-2q0 -1 0.5 -4.5t1.5 -5.5q1 -4 -2 -7q-4 -4 -4 -6q-1 -3 1 -3q0 -1 -1 -3t-1 -3q1 -2 1 -3z" />
    <glyph glyph-name="uniF0AD" unicode="&#xf0ad;" horiz-adv-x="237" 
d="M55 9q0 4 -3 6.5t-6.5 2.5t-6 -2.5t-2.5 -6.5t2.5 -6.5t6 -2.5t6.5 2.5t3 6.5zM147 69l-98 -97q-5 -5 -12 -6q-7 0 -13 6l-16 15q-5 5 -5 13t5 13l98 97q6 -14 16.5 -24.5t24.5 -16.5zM237 131q0 -6 -3 -15q-7 -19 -23.5 -31t-36.5 -12q-26 0 -45 19t-19 45.5t18.5 45
t45.5 18.5q8 0 17 -2.5t15 -6.5q2 -2 2.5 -4t-2.5 -4l-41 -24v-32l27 -15q1 0 11.5 6.5t19.5 11.5t10 5q2 0 3 -1.5t1 -3.5z" />
    <glyph glyph-name="uniF0AE" unicode="&#xf0ae;" horiz-adv-x="256" 
d="M146 18h92v19h-92v-19zM91 91h147v19h-147v-19zM183 165h55v18h-55v-18zM256 46v-37q0 -4 -2.5 -6.5t-6.5 -2.5h-238q-4 0 -6.5 2.5t-2.5 6.5v37q0 4 2.5 6.5t6.5 2.5h238q4 0 6.5 -2.5t2.5 -6.5zM256 119v-37q0 -4 -2.5 -6.5t-6.5 -2.5h-238q-4 0 -6.5 3t-2.5 6v37
q0 4 2.5 6.5t6.5 2.5h238q4 0 6.5 -2.5t2.5 -6.5zM256 192v-37q0 -4 -2.5 -6.5t-6.5 -2.5h-238q-4 0 -6.5 3t-2.5 6v37q0 4 2.5 6.5t6.5 2.5h238q4 0 6.5 -2.5t2.5 -6.5z" />
    <glyph glyph-name="uniF0B0" unicode="&#xf0b0;" horiz-adv-x="201" 
d="M200 177q2 -6 -2 -10l-70 -70v-106q0 -6 -6 -9q-2 -1 -3 0q-4 0 -7 2l-36 37q-3 3 -3 6v70l-70 70q-4 4 -2 10t8 6h183q6 0 8 -6z" />
    <glyph glyph-name="uniF0B1" unicode="&#xf0b1;" horiz-adv-x="256" 
d="M91 183h74v18h-74v-18zM256 91v-68q0 -9 -6.5 -16t-16.5 -7h-210q-9 0 -16 6.5t-7 16.5v68h96v-22q0 -4 2.5 -7t6.5 -3h46q4 0 6.5 3t2.5 7v22h96zM146 91v-18h-36v18h36zM256 160v-55h-256v55q0 9 6.5 16t16.5 7h50v23q0 6 4 9.5t10 3.5h82q6 0 10 -4t4 -9v-23h50
q9 0 16 -7t7 -16z" />
    <glyph glyph-name="uniF0B2" unicode="&#xf0b2;" 
d="M183 142l-50 -51l50 -50l21 20q4 4 10 2t5 -8v-64q0 -4 -2.5 -6.5t-6.5 -2.5h-64q-6 0 -8 5q-2 6 2 10l20 21l-50 51l-51 -51l21 -21q4 -4 2 -10t-9 -5h-64q-4 0 -6.5 2.5t-2.5 6.5v64q0 6 6 8t10 -2l20 -20l51 50l-51 51l-20 -20q-3 -3 -7 -3q-2 0 -3 1q-6 2 -6 8v64
q0 4 2.5 6.5t6.5 2.5h64q6 0 9 -6q2 -6 -2 -9l-21 -21l51 -51l50 51l-20 21q-4 4 -2 9q2 6 8 6h64q4 0 6.5 -2.5t2.5 -6.5v-64q0 -6 -5 -8q-2 -1 -4 -1q-4 0 -6 3z" />
    <glyph glyph-name="uniF0C0" unicode="&#xf0c0;" horiz-adv-x="274" 
d="M85 91q-23 -1 -38 -18h-19q-12 0 -20 6t-8 17q0 50 18 50q1 0 6 -3t13.5 -6t17.5 -3q10 0 19 3q-1 -5 -1 -9q0 -20 12 -37zM238 0q0 -17 -10.5 -27t-27.5 -10h-125q-17 0 -27.5 10t-10.5 27q0 8 0.5 15t2 15.5t3.5 15.5t6 14t9 12t12 7.5t16 2.5q1 0 6 -3t10.5 -6.5
t15 -7t19.5 -3.5t19.5 3.5t15 7t10.5 6.5t6 3q9 0 16 -2.5t12 -7.5t9 -12t6.5 -14t4 -15.5t2 -15.5t0.5 -15zM91 183q0 -15 -10.5 -26t-25.5 -11t-26 11t-11 26t11 25.5t26 10.5t25.5 -10.5t10.5 -25.5zM192 128q0 -23 -16 -39t-39 -16t-39 16t-16 39t16 39t39 16t39 -16
t16 -39zM274 96q0 -11 -8 -17t-19 -6h-20q-15 18 -37 18q12 17 11 37q0 4 -1 9q9 -3 19 -3q8 0 17 3t14.5 6t6.5 3q17 0 17 -50zM256 183q0 -15 -10.5 -26t-26 -11t-26 11t-10.5 26t10.5 25.5t26 10.5t26 -10.5t10.5 -25.5z" />
    <glyph glyph-name="uniF0C1" unicode="&#xf0c1;" horiz-adv-x="237" 
d="M208 46q0 6 -4 9l-30 30q-4 4 -9 4q-6 0 -11 -4l2 -3q3 -2 4 -3t2.5 -3t2 -3.5t0.5 -3.5q0 -6 -4 -10t-10 -4q-2 0 -4 0.5t-4 2t-2.5 2l-2.5 2.5l-3 3q-5 -4 -5 -10t4 -10l30 -30q4 -4 9 -3q6 0 10 3l21 21q4 4 4 10zM108 146q0 6 -4 10l-30 30q-4 4 -10 4t-9 -4l-21 -21
q-4 -4 -4 -10t4 -9l29 -30q4 -4 10 -4t10 5l-3 2q-2 2 -2.5 3t-2 3t-2 3.5t-0.5 4.5q0 6 4 9.5t10 3.5q2 0 4 -0.5t3.5 -1.5t2.5 -2t3 -3.5t3 -2.5q5 4 5 10zM235 46q0 -17 -12 -29l-21 -21q-12 -12 -29 -12t-29 12l-29 30q-12 12 -12 29q0 18 12 30l-12 12q-12 -13 -30 -12
q-17 0 -29 12l-30 29q-12 12 -12 29.5t12 28.5l21 21q12 12 29 12t30 -12l29 -30q12 -12 12 -29q0 -18 -13 -29l13 -13q12 13 30 13q17 0 29 -12l29 -30q12 -12 12 -29z" />
    <glyph glyph-name="uniF0C2" unicode="&#xf0c2;" horiz-adv-x="274" 
d="M274 55q0 -23 -16 -39t-39 -16h-155q-26 0 -45 19t-19 45q0 19 10 34.5t27 23.5v6q0 30 21 51.5t52 21.5q23 0 41 -12.5t26 -32.5q10 9 24 9q15 0 26 -11t11 -26q0 -11 -6 -20q18 -4 30 -19t12 -34z" />
    <glyph glyph-name="uniF0C3" unicode="&#xf0c3;" horiz-adv-x="237" 
d="M218 13q8 -13 3 -22t-20 -9h-164q-15 0 -20 9t3 22l71 113v57h-9q-4 0 -6.5 2.5t-2.5 6.5t3 6.5t6 2.5h73q4 0 7 -2.5t3 -6.5t-3 -6.5t-7 -2.5h-9v-57zM107 116l-39 -61h102l-39 61l-3 5v5v57h-18v-57v-5z" />
    <glyph glyph-name="uniF0C4" unicode="&#xf0c4;" horiz-adv-x="256" 
d="M137 91q4 0 6.5 -2.5t2.5 -6t-2.5 -6.5t-6.5 -3t-6.5 3t-2.5 6.5t2.5 6t6.5 2.5zM180 82l72 -57q4 -3 4 -8q-1 -5 -5 -7l-18 -9q-2 -1 -4 -1t-5 1l-98 55l-16 -9q-1 -1 -2 -1q2 -7 2 -14q-1 -11 -8 -21t-19 -17q-19 -12 -40 -12q-19 0 -32 11q-13 12 -11 29q1 11 8 21.5
t19 17.5q19 12 40 12q12 0 21 -4q1 2 3 3l18 10l-18 11q-2 1 -3 3q-10 -4 -21 -5q-21 0 -40 12q-12 8 -19 18t-8 21q-1 8 2 16t9 14q12 11 32 11q21 0 40 -12q12 -7 19 -17.5t8 -21.5q1 -7 -2 -14h2l16 -10l98 55q2 1 5 2q2 0 4 -1l18 -10q4 -2 5 -7q0 -5 -4 -8zM83 119
q7 6 3 15.5t-15 17.5q-13 8 -28 8q-11 0 -16 -5q-7 -6 -3 -15.5t15 -16.5q13 -8 28 -9q10 0 16 5zM71 13q12 7 15 16.5t-3 15.5q-6 5 -16 5q-14 0 -28 -8q-12 -7 -15.5 -16.5t3.5 -15.5q6 -5 16 -5q15 0 28 8zM96 101l14 -9v2q0 5 4 8l2 1l-11 7l-4 -4l-1 -2q-1 -1 -2 -1v-1
h-1zM128 69l14 -5l105 82l-18 9l-110 -61v-16l-23 -14l1 -1l1 -1l2 -2l1 -1l4 -4zM229 9l18 9l-74 59l-26 -20l-2 -1z" />
    <glyph glyph-name="uniF0C5" unicode="&#xf0c5;" horiz-adv-x="256" 
d="M242 165q6 0 10 -4t4 -10v-174q0 -6 -4 -10t-10 -4h-137q-6 0 -10 4t-4 10v41h-77q-6 0 -10 4t-4 10v96q0 6 3 12.5t7 10.5l58 59q4 4 11 6.5t12 2.5h60q6 0 10 -4t4 -9v-47q10 6 18 6h59zM165 134l-43 -43h43v43zM73 189l-43 -43h43v43zM101 97l45 45v59h-55v-59
q0 -6 -4 -10t-9 -4h-60v-91h73v36q0 6 3 13t7 11zM238 -18v164h-55v-59q0 -6 -4 -10t-10 -4h-59v-91h128z" />
    <glyph glyph-name="uniF0C6" unicode="&#xf0c6;" horiz-adv-x="201" 
d="M201 22q0 -17 -11.5 -28.5t-28.5 -11.5q-19 0 -33 15l-111 110q-16 16 -16 39t15.5 39t38.5 16t39 -17l86 -86q1 -1 2 -3q0 -2 -4.5 -6.5t-6.5 -4.5t-4 1l-86 87q-11 11 -26 11t-25.5 -11t-10.5 -26t11 -26l111 -111q9 -9 20 -9q9 0 15 6t6 16q0 12 -9 20l-83 83
q-4 3 -8 4q-4 0 -7 -3t-3 -7q0 -5 4 -8l58 -59q1 -1 2 -3q0 -2 -4.5 -6.5t-6.5 -4.5t-3 1l-59 59q-9 9 -9 21t8 20t20 8q13 0 21 -9l83 -83q15 -13 15 -33z" />
    <glyph glyph-name="uniF0C7" unicode="&#xf0c7;" 
d="M55 0h110v55h-110v-55zM183 0h18v128q0 2 -1.5 5.5t-2.5 4.5l-40 41q-1 1 -5 2.5t-6 1.5v-60q0 -6 -4 -9.5t-9 -3.5h-83q-6 0 -9.5 4t-3.5 9v60h-19v-183h19v59q0 6 4 10t9 4h119q6 0 10 -4t4 -10v-59zM128 133v45q0 2 -1.5 3.5t-3.5 1.5h-27q-2 0 -3.5 -1.5t-1.5 -3.5
v-45q0 -2 1.5 -3.5t3.5 -1.5h27q2 0 3.5 1.5t1.5 3.5zM219 128v-133q0 -6 -4 -9.5t-9 -3.5h-192q-6 0 -10 4t-4 9v192q0 6 4 10t10 4h132q6 0 13 -3t11 -7l40 -40q4 -4 6.5 -10.5t2.5 -12.5z" />
    <glyph glyph-name="uniF0C8" unicode="&#xf0c8;" 
d="M219 160v-137q0 -17 -12 -29t-29 -12h-137q-17 0 -29 12t-12 29v137q0 17 12 29t29 12h137q17 0 29 -12t12 -29z" />
    <glyph glyph-name="uniF0C9" unicode="&#xf0c9;" 
d="M219 27v-18q0 -4 -2.5 -6.5t-6.5 -2.5h-201q-4 0 -6.5 2.5t-2.5 6.5v18q0 4 2.5 7t6.5 3h201q4 0 6.5 -3t2.5 -7zM219 101v-19q0 -4 -2.5 -6.5t-6.5 -2.5h-201q-4 0 -6.5 3t-2.5 6v19q0 4 2.5 6.5t6.5 2.5h201q4 0 6.5 -2.5t2.5 -6.5zM219 174v-19q0 -4 -2.5 -6.5
t-6.5 -2.5h-201q-4 0 -6.5 3t-2.5 6v19q0 4 2.5 6.5t6.5 2.5h201q4 0 6.5 -2.5t2.5 -6.5z" />
    <glyph glyph-name="uniF0CA" unicode="&#xf0ca;" horiz-adv-x="256" 
d="M55 18.5q0 -11.5 -8 -19.5t-19.5 -8t-19.5 8t-8 19.5t8 19.5t19.5 8t19.5 -8t8 -19.5zM55 91.5q0 -11.5 -8 -19.5t-19.5 -8t-19.5 8t-8 19.5t8 19.5t19.5 8t19.5 -8t8 -19.5zM256 32v-27q0 -2 -1.5 -3.5t-3.5 -1.5h-173q-2 0 -3.5 1.5t-1.5 3.5v27q0 2 1.5 3.5t3.5 1.5
h173q2 0 3.5 -1.5t1.5 -3.5zM55 164.5q0 -11.5 -8 -19.5t-19.5 -8t-19.5 8t-8 19.5t8 19.5t19.5 8t19.5 -8t8 -19.5zM256 105v-27q0 -2 -1.5 -3.5t-3.5 -1.5h-173q-2 0 -3.5 1.5t-1.5 3.5v27q0 2 1.5 3.5t3.5 1.5h173q2 0 3.5 -1.5t1.5 -3.5zM256 178v-27q0 -2 -1.5 -3.5
t-3.5 -1.5h-173q-2 0 -3.5 1.5t-1.5 3.5v27q0 2 1.5 3.5t3.5 1.5h173q2 0 3.5 -1.5t1.5 -3.5z" />
    <glyph glyph-name="uniF0CB" unicode="&#xf0cb;" horiz-adv-x="256" 
d="M54 -12q0 -11 -7.5 -18t-19.5 -7q-15 0 -24 10l8 12q7 -6 15 -6q4 0 7 2t3 6q0 9 -15 8l-3 8q1 1 4.5 6t6 8t5.5 6v0q-2 0 -7 -0.5t-7 -0.5v-7h-15v22h47v-13l-13 -16q7 -2 11 -7.5t4 -12.5zM55 78v-23h-52q-1 5 -1 8q0 7 3.5 13t8 9.5t9.5 6.5t8 6.5t3 6.5q0 4 -2 5.5
t-5 1.5q-7 0 -12 -8l-12 9q3 7 10 11t15 4q10 0 17.5 -6t7.5 -16q0 -7 -5 -13t-10.5 -9.5t-10.5 -7t-5 -7.5h18v9h15zM256 32v-27q0 -2 -1.5 -3.5t-3.5 -1.5h-173q-2 0 -3.5 1.5t-1.5 3.5v27q0 2 1.5 3.5t3.5 1.5h173q2 0 3.5 -1.5t1.5 -3.5zM55 160v-14h-48v14h15v17.5
v17.5v2v0q-1 -2 -7 -8l-10 11l19 18h15v-58h16zM256 105v-27q0 -2 -1.5 -3.5t-3.5 -1.5h-173q-2 0 -3.5 1.5t-1.5 3.5v27q0 2 1.5 3.5t3.5 1.5h173q2 0 3.5 -1.5t1.5 -3.5zM256 178v-27q0 -2 -1.5 -3.5t-3.5 -1.5h-173q-2 0 -3.5 1.5t-1.5 3.5v27q0 2 1.5 3.5t3.5 1.5h173
q2 0 3.5 -1.5t1.5 -3.5z" />
    <glyph glyph-name="uniF0CC" unicode="&#xf0cc;" horiz-adv-x="256" 
d="M251 91q2 0 3.5 -1t1.5 -3v-9q0 -2 -1.5 -3.5t-3.5 -1.5h-246q-2 0 -3.5 1.5t-1.5 3.5v9q0 2 1.5 3t3.5 1h246zM69 101q-4 5 -7 11q-7 14 -7 27q0 26 19 44t56 18q7 0 24 -3q9 -2 25 -6q1 -5 3 -17q2 -18 2 -26v-7h-2l-12 1h-2q-7 21 -15 29q-13 13 -30 13q-16 0 -26 -8
t-9 -21q0 -10 9 -20t40 -19q10 -3 25 -9q8 -4 13 -7h-106zM141 64h59q1 -6 1 -13q0 -16 -6 -30q-3 -8 -10 -15q-5 -5 -15 -12q-11 -7 -22 -9q-11 -3 -29 -3q-16 0 -28 3l-20 6q-8 2 -10 4q-1 1 -2 3v2v22v10v5v6l15 1q2 -5 4 -10.5t3.5 -8t1.5 -3.5q5 -8 12 -14q6 -5 15 -8
q8 -3 19 -3q9 0 19 4q11 4 18 12q7 9 7 18q0 12 -12 23q-5 4 -20 10z" />
    <glyph glyph-name="uniF0CD" unicode="&#xf0cd;" 
d="M7 188h-7v13h6q9 0 16 -1q19 -1 23 -1q12 0 24 1q17 1 21 0q8 0 13 1l-1 -2l1 -9v-2q-9 -1 -18 -1t-11 -4q-2 -2 -2 -18v-5v-4v-32l2 -40q1 -18 7 -29q5 -8 14 -13q13 -7 25 -7q15 0 28 4q8 3 14 7q7 5 9 9q5 8 8 17q3 10 3 32q0 11 -0.5 18.5t-1.5 18t-2 22.5l-1 8
q-1 10 -3 13q-5 5 -11 5l-15 -1l-2 1l1 12h12l29 -1q11 0 28 1h3q1 -5 0 -7v-5q-6 -2 -12 -2q-10 -2 -11 -2q-2 -2 -3 -6q0 -1 0.5 -4t0.5 -4q1 -3 3 -57q1 -28 -2 -43q-2 -11 -6 -18q-5 -9 -16 -17t-26 -13q-16 -5 -36 -5q-24 0 -41 7t-26 17q-9 11 -11 28q-2 11 -3 34v48
q0 27 -2 30q-4 6 -21 6zM219 -14v9q0 2 -1 3.5t-3 1.5h-210q-2 0 -3.5 -1.5t-1.5 -3.5v-9q0 -2 1.5 -3t3.5 -1h210q2 0 3 1t1 3z" />
    <glyph glyph-name="uniF0CE" unicode="&#xf0ce;" horiz-adv-x="237" 
d="M73 23v27q0 2 -1 3.5t-3 1.5h-46q-2 0 -3.5 -1.5t-1.5 -3.5v-27q0 -2 1.5 -3.5t3.5 -1.5h46q2 0 3 1.5t1 3.5zM73 78v27q0 2 -1 3.5t-3 1.5h-46q-2 0 -3.5 -1.5t-1.5 -3.5v-27q0 -2 1.5 -3.5t3.5 -1.5h46q2 0 3 1.5t1 3.5zM146 23v27q0 2 -1 3.5t-3 1.5h-46
q-2 0 -3.5 -1.5t-1.5 -3.5v-27q0 -2 1.5 -3.5t3.5 -1.5h46q2 0 3 1.5t1 3.5zM73 133v27q0 2 -1 3.5t-3 1.5h-46q-2 0 -3.5 -1.5t-1.5 -3.5v-27q0 -2 1.5 -3.5t3.5 -1.5h46q2 0 3 1.5t1 3.5zM146 78v27q0 2 -1 3.5t-3 1.5h-46q-2 0 -3.5 -1.5t-1.5 -3.5v-27q0 -2 1.5 -3.5
t3.5 -1.5h46q2 0 3 1.5t1 3.5zM219 23v27q0 2 -1 3.5t-3 1.5h-46q-2 0 -3 -1.5t-1 -3.5v-27q0 -2 1 -3.5t3 -1.5h46q2 0 3 1.5t1 3.5zM146 133v27q0 2 -1 3.5t-3 1.5h-46q-2 0 -3.5 -1.5t-1.5 -3.5v-27q0 -2 1.5 -3.5t3.5 -1.5h46q2 0 3 1.5t1 3.5zM219 78v27q0 2 -1 3.5
t-3 1.5h-46q-2 0 -3 -1.5t-1 -3.5v-27q0 -2 1 -3.5t3 -1.5h46q2 0 3 1.5t1 3.5zM219 133v27q0 2 -1 3.5t-3 1.5h-46q-2 0 -3 -1.5t-1 -3.5v-27q0 -2 1 -3.5t3 -1.5h46q2 0 3 1.5t1 3.5zM238 178v-155q0 -9 -7 -16t-16 -7h-192q-9 0 -16 6.5t-7 16.5v155q0 9 6.5 16t16.5 7
h192q9 0 16 -7t7 -16z" />
    <glyph glyph-name="uniF0D0" unicode="&#xf0d0;" horiz-adv-x="237" 
d="M170 136l42 42l-15 16l-42 -42zM234 178q0 -4 -3 -6l-183 -184q-3 -3 -7 -2.5t-6 2.5l-29 28q-3 3 -2.5 7t2.5 6l184 184q3 3 6.5 3t6.5 -3l28 -28q3 -3 3 -7zM41 205l14 -4l-14 -4l-4 -14l-5 14l-14 4l14 4l5 14zM91 182l28 -8l-28 -9l-9 -28l-8 28l-28 9l28 8l8 28z
M224 114l14 -4l-14 -5l-5 -14l-4 14l-14 5l14 4l4 14zM132 205l14 -4l-14 -4l-4 -14l-4 14l-14 4l14 4l4 14z" />
    <glyph glyph-name="uniF0D1" unicode="&#xf0d1;" horiz-adv-x="256" 
d="M91 18.5q0 7.5 -5 13t-12.5 5.5t-13 -5.5t-5.5 -13t5.5 -13t13 -5.5t12.5 5.5t5 13zM37 91h54v37h-22q-2 0 -3 -1l-28 -28q-1 -1 -1 -3v-5zM219 18.5q0 7.5 -5 13t-12.5 5.5t-13 -5.5t-5.5 -13t5.5 -13t13 -5.5t12.5 5.5t5 13zM256 174v-147q0 -2 -0.5 -3.5t-2 -2.5
t-2.5 -1.5t-3.5 -1t-3 -0.5h-3.5h-3q0 -15 -11 -25.5t-26 -10.5t-25.5 10.5t-10.5 25.5h-55q0 -15 -11 -25.5t-26 -10.5t-25.5 10.5t-10.5 25.5h-10h-3h-3.5t-3 0.5t-3.5 1t-2.5 1.5t-2 2.5t-0.5 3.5q0 4 3 7t6 3v45v5v5.5t0.5 5t1 5.5t2 4.5t3.5 4.5l28 28q3 3 7.5 4.5
t8.5 1.5h22v28q0 4 3 6.5t7 2.5h146q4 0 6.5 -2.5t2.5 -6.5z" />
    <glyph glyph-name="uniF0D2" unicode="&#xf0d2;" 
d="M219 91.5q0 -29.5 -14.5 -55t-39.5 -40t-55 -14.5q-16 0 -31 4q8 13 11 24q1 5 7 30q3 -6 10.5 -10t16.5 -4q17 0 31 10t21 27t7 38q0 16 -8.5 30.5t-24.5 23.5t-36 9q-15 0 -28 -4t-22 -11t-15.5 -16t-9.5 -18.5t-3 -18.5q0 -15 5.5 -26.5t16.5 -15.5q4 -2 5 3q0 1 1 4
t2 4q1 3 -2 6q-7 9 -7 22q0 22 15 37.5t39 15.5q22 0 34 -12t12 -31q0 -24 -10 -41t-25 -17q-9 0 -14.5 6.5t-3.5 14.5q1 5 4 13.5t4.5 15t1.5 10.5q0 7 -4 12t-11 5q-9 0 -15 -8.5t-6 -20.5q0 -10 4 -17l-14 -60q-2 -10 -2 -25q-29 13 -47.5 40t-18.5 60q0 30 14.5 55.5
t40 40t55.5 14.5t55 -14.5t39.5 -40t14.5 -55z" />
    <glyph glyph-name="uniF0D3" unicode="&#xf0d3;" 
d="M178 201q17 0 29 -12t12 -29v-137q0 -17 -12 -29t-29 -12h-103q12 17 15 30q1 5 8 30q3 -6 10.5 -10t15.5 -4q26 0 42.5 21t16.5 53q0 12 -5 23.5t-14 20t-22 14t-28 5.5t-28 -4.5t-21.5 -11t-15 -15.5t-9.5 -18.5t-3 -18.5q0 -15 5.5 -26t16.5 -16q2 -1 3.5 0t1.5 3
q1 6 2 9t-1 6q-7 9 -7 21q0 21 14.5 36.5t38.5 15.5q21 0 33 -11.5t12 -30.5q0 -24 -9.5 -40.5t-24.5 -16.5q-9 0 -14 6t-3 15q1 5 3.5 13t4 14.5t1.5 10.5q0 7 -3.5 11.5t-10.5 4.5q-9 0 -15 -8t-6 -20q0 -10 3 -17l-14 -59q-3 -14 -1 -36h-26q-17 0 -29 12t-12 29v137
q0 17 12 29t29 12h137z" />
    <glyph glyph-name="uniF0D4" unicode="&#xf0d4;" 
d="M131 90q0 4 -1 9h-52v-19h31q0 -3 -2 -6.5t-5.5 -7.5t-9.5 -6.5t-14 -2.5q-14 0 -24 10t-10 24.5t10 24.5t24 10q13 0 22 -8l15 14q-15 14 -37 14q-23 0 -38.5 -16t-15.5 -38.5t16 -38.5t38 -16q24 0 38.5 14.5t14.5 38.5zM180 84h16v15h-16v16h-15v-16h-16v-15h16v-16
h15v16zM219 160v-137q0 -17 -12 -29t-29 -12h-137q-17 0 -29 12t-12 29v137q0 17 12 29t29 12h137q17 0 29 -12t12 -29z" />
    <glyph glyph-name="uniF0D5" unicode="&#xf0d5;" horiz-adv-x="329" 
d="M205 89q0 -30 -12.5 -53t-35.5 -36t-52 -13q-21 0 -40.5 8t-33.5 22t-22.5 33.5t-8.5 41t8.5 41t22.5 33.5t33 22t41 8q41 0 70 -27l-29 -28q-17 16 -41 17q-18 0 -33 -9t-23.5 -24.5t-8.5 -33.5t8.5 -33t23.5 -24t33 -9q12 0 21.5 3.5t16 8.5t11.5 11t7 11.5t3 10.5h-59
v36h99q1 -9 1 -17zM329 106v-30h-30v-29h-30v29h-30v30h30v30h30v-30h30z" />
    <glyph glyph-name="uniF0D6" unicode="&#xf0d6;" horiz-adv-x="274" 
d="M110 55h55v14h-19v64h-16l-21 -20l11 -11q6 5 8 8v0v-41h-18v-14zM183 91q0 -10 -3 -20t-8.5 -19t-14.5 -14.5t-20 -5.5t-20 5.5t-14.5 14.5t-8.5 19t-3 20t3 20.5t8.5 19.5t14.5 14.5t20 5.5t20 -5.5t14.5 -14.5t8.5 -19.5t3 -20.5zM256 55v73q-15 0 -26 10.5t-11 26.5
h-164q0 -15 -11 -26t-26 -11v-73q15 0 26 -11t11 -26h164q0 15 11 26t26 11zM274 174v-165q0 -4 -2.5 -6.5t-6.5 -2.5h-256q-4 0 -6.5 2.5t-2.5 6.5v165q0 4 2.5 6.5t6.5 2.5h256q4 0 6.5 -2.5t2.5 -6.5z" />
    <glyph glyph-name="uniF0D7" unicode="&#xf0d7;" horiz-adv-x="146" 
d="M146 119q0 -4 -2 -7l-64 -64q-3 -3 -7 -2.5t-6 2.5l-64 64q-3 3 -3 7t2.5 6.5t6.5 2.5h128q4 0 6.5 -2.5t2.5 -6.5z" />
    <glyph glyph-name="uniF0D8" unicode="&#xf0d8;" horiz-adv-x="146" 
d="M146 45.5q0 -3.5 -2.5 -6t-6.5 -2.5h-128q-4 0 -6.5 2.5t-2.5 6t3 6.5l64 64q3 3 6.5 3t6.5 -3l64 -64q2 -3 2 -6.5z" />
    <glyph glyph-name="uniF0D9" unicode="&#xf0d9;" horiz-adv-x="91" 
d="M91 155v-128q0 -4 -2.5 -6.5t-6 -2.5t-6.5 3l-64 64q-3 3 -3 6.5t3 6.5l64 64q3 3 6.5 3t6 -3t2.5 -7z" />
    <glyph glyph-name="uniF0DA" unicode="&#xf0da;" horiz-adv-x="91" 
d="M82 91.5q0 -3.5 -2 -6.5l-64 -64q-3 -3 -7 -3t-6.5 3t-2.5 6v128q0 4 2.5 7t6.5 3t7 -3l64 -64q2 -3 2 -6.5z" />
    <glyph glyph-name="uniF0DB" unicode="&#xf0db;" horiz-adv-x="237" 
d="M23 0h87v165h-92v-160q0 -2 1.5 -3.5t3.5 -1.5zM219 5v160h-91v-165h87q2 0 3 1.5t1 3.5zM238 178v-173q0 -9 -7 -16t-16 -7h-192q-9 0 -16 6.5t-7 16.5v173q0 9 6.5 16t16.5 7h192q9 0 16 -7t7 -16z" />
    <glyph glyph-name="uniF0DC" unicode="&#xf0dc;" horiz-adv-x="146" 
d="M146 64q0 -4 -2 -6l-64 -64q-3 -3 -7 -3t-6 3l-64 64q-3 3 -3 6.5t2.5 6t6.5 2.5h128q4 0 6.5 -2.5t2.5 -6.5zM146 119q0 -4 -2.5 -6.5t-6.5 -2.5h-128q-4 0 -6.5 2.5t-2.5 6.5t3 6l64 64q3 3 6.5 3t6.5 -3l64 -64q2 -2 2 -6z" />
    <glyph glyph-name="uniF0DD" unicode="&#xf0dd;" horiz-adv-x="146" 
d="M146 64q0 -4 -2 -6l-64 -64q-3 -3 -7 -3t-6 3l-64 64q-3 3 -3 6.5t2.5 6t6.5 2.5h128q4 0 6.5 -2.5t2.5 -6.5z" />
    <glyph glyph-name="uniF0DE" unicode="&#xf0de;" horiz-adv-x="146" 
d="M146 119q0 -4 -2.5 -6.5t-6.5 -2.5h-128q-4 0 -6.5 2.5t-2.5 6.5t3 6l64 64q3 3 6.5 3t6.5 -3l64 -64q2 -2 2 -6z" />
    <glyph glyph-name="uniF0E0" unicode="&#xf0e0;" horiz-adv-x="256" 
d="M256 118v-113q0 -9 -6.5 -16t-16.5 -7h-210q-9 0 -16 6.5t-7 16.5v113q6 -7 14 -12q52 -35 71 -50q8 -6 13.5 -9t14 -6.5t15.5 -3.5v0v0q7 0 15.5 3.5t13.5 6.5t14 9q24 18 71 50q8 5 14 12zM256 160q0 -11 -7 -21.5t-17 -17.5q-54 -37 -67 -47q-1 -1 -6 -4t-8 -5
l-7.5 -5t-8.5 -4t-7 -1v0v0q-3 0 -7 1t-8.5 4l-7.5 5l-7.5 5t-6.5 4q-13 9 -37.5 26t-28.5 21q-9 6 -17 16.5t-8 19.5q0 11 6 18.5t17 7.5h210q9 0 16 -7t7 -16z" />
    <glyph glyph-name="uniF0E1" unicode="&#xf0e1;" 
d="M50 130v-141h-47v141h47zM53 174q0 -10 -7.5 -17.5t-19.5 -7.5v0q-12 0 -19 7t-7 18t7.5 17.5t19 6.5t19 -6.5t7.5 -17.5zM219 70v-81h-47v75q0 15 -5.5 23.5t-17.5 8.5q-9 0 -15.5 -5t-9.5 -12q-2 -4 -1 -11v-79h-47v92v42v7h47v-20v0q3 5 5.5 8t8 7t12.5 6t16 2
q24 0 39 -16t15 -47z" />
    <glyph glyph-name="uniF0E2" unicode="&#xf0e2;" 
d="M219 91.5q0 -22.5 -8.5 -42.5t-23 -35t-35 -23.5t-42.5 -8.5q-25 0 -47 10t-38 29q-1 1 -1 3t2 3l19 20q1 1 4 1q2 0 3 -1q10 -14 25.5 -21.5t32.5 -7.5q15 0 28.5 6t23 16t15.5 23.5t6 28t-6 28t-15.5 23.5t-23 16t-28.5 6q-14 0 -27 -5.5t-23 -14.5l20 -20q4 -4 2 -10
t-9 -5h-64q-4 0 -6.5 2.5t-2.5 6.5v64q0 6 6 8t10 -2l18 -18q15 14 35 22t41 8q22 0 42.5 -8.5t35 -23.5t23 -35t8.5 -42.5z" />
    <glyph glyph-name="uniF0E3" unicode="&#xf0e3;" horiz-adv-x="256" 
d="M253 0q0 -8 -5 -13l-16 -15q-6 -5 -13 -6q-8 0 -12 6l-52 52q-5 5 -6 13q0 8 6 13l-36 37l-18 -18q-2 -2 -5 -2t-5 2l1 -1l2.5 -2.5t1.5 -2t1.5 -2t1 -1.5t0.5 -2.5v-2.5q0 -5 -4 -10l-2 -3l-2.5 -2.5t-2.5 -2t-3.5 -2.5t-3 -1.5t-3.5 -0.5q-6 0 -10 4l-58 58q-4 4 -4 10
q0 2 0.5 4t1 3t2 3t2.5 3t3 2.5t3 2.5q4 4 9 4q1 0 2.5 -0.5l3 -1t2 -0.5t1.5 -1.5t1.5 -1.5t2.5 -2l1 -1q-2 2 -2 4.5t2 4.5l50 50q2 2 5 2t5 -2l-1 2q-2 1 -2.5 1.5l-1.5 1.5t-1.5 2l-1 2t-0.5 2.5v2.5q0 5 4 10l2 2q2 2 2.5 3t2.5 2.5t3.5 2t3 1.5t3.5 1q6 0 10 -4
l58 -59q4 -4 4 -9q0 -2 -0.5 -4t-1 -3t-2 -3t-2.5 -3l-3 -3t-3 -2q-4 -4 -9 -4h-2.5t-3 1t-2 1t-1.5 1l-1.5 1.5t-2.5 1.5l-1 2q2 -2 2 -4.5t-2 -4.5l-18 -18l36 -37q6 6 14 6q7 0 13 -5l52 -52q5 -6 5 -13z" />
    <glyph glyph-name="uniF0E4" unicode="&#xf0e4;" horiz-adv-x="256" 
d="M55 54.5q0 7.5 -5.5 13t-13 5.5t-13 -5.5t-5.5 -13t5.5 -12.5t13 -5t13 5t5.5 12.5zM82 118.5q0 7.5 -5 13t-13 5.5t-13 -5.5t-5 -13t5 -12.5t13 -5t13 5t5 12.5zM143 50l15 55q1 4 -1 7t-5.5 4t-7 -1t-4.5 -6l-14 -54q-9 -1 -15.5 -6.5t-9.5 -14.5q-3 -11 3 -20.5
t17 -12.5t21 2.5t13 16.5q2 9 -1.5 17t-10.5 13zM238 54.5q0 7.5 -5.5 13t-13 5.5t-13 -5.5t-5.5 -13t5.5 -12.5t13 -5t13 5t5.5 12.5zM146 146.5q0 7.5 -5 13t-13 5.5t-13 -5.5t-5 -13t5 -13t13 -5.5t13 5.5t5 13zM210 118.5q0 7.5 -5 13t-13 5.5t-13 -5.5t-5 -13t5 -12.5
t13 -5t13 5t5 12.5zM256 55q0 -37 -20 -69q-3 -4 -8 -4h-200q-5 0 -8 4q-20 32 -20 69q0 26 10 49.5t27.5 41t41 27.5t49.5 10t49.5 -10t41 -27.5t27.5 -41t10 -49.5z" />
    <glyph glyph-name="uniF0E5" unicode="&#xf0e5;" horiz-adv-x="256" 
d="M128 165q-29 0 -54.5 -10t-40.5 -27t-15 -37q0 -16 10.5 -30.5t28.5 -24.5l13 -7l-4 -14q-3 -13 -10 -25q22 9 39 25l6 5l8 -1q10 -1 19 -1q29 0 54.5 10t40.5 27t15 36.5t-15 36.5t-40.5 27t-54.5 10zM256 91.5q0 -24.5 -17 -46t-46.5 -33.5t-64.5 -12q-10 0 -21 1
q-28 -25 -65 -34q-7 -2 -17 -4v0q-2 0 -4 1.5t-3 4.5v0v2l1 1l1 2v1l1 1l1 1q1 1 4.5 5t5 5.5t4.5 5.5t4.5 7.5t4 8.5t3.5 11q-22 13 -35 31.5t-13 39.5q0 25 17 46t46.5 33.5t64.5 12.5t64.5 -12.5t46.5 -33.5t17 -45.5z" />
    <glyph glyph-name="uniF0E6" unicode="&#xf0e6;" horiz-adv-x="256" 
d="M100.5 165q-21.5 0 -40.5 -7.5t-30.5 -20.5t-11.5 -27q0 -12 7.5 -23t21.5 -19l14 -8l-5 -12q5 3 9 6l6 4l8 -1q11 -2 22 -2q22 0 40.5 7.5t30 20t11.5 27t-11.5 27.5t-30.5 20.5t-40.5 7.5zM100.5 183q27.5 0 50.5 -10t36.5 -26.5t13.5 -36.5t-13.5 -37t-36.5 -26.5
t-50 -9.5q-12 0 -26 2q-18 -13 -39 -18q-5 -1 -13 -3v0q-2 0 -3 1.5t-2 2.5v1v1.5v1.5h1h1v1.5v0.5l1 1l3.5 3.5t3.5 4t3.5 4t4 5.5t2.5 6q-18 10 -28 25.5t-10 32.5q0 20 13.5 36.5t36.5 26.5t50.5 10zM218 16q1 -3 2.5 -6t4 -6t3.5 -4.5t3.5 -4l3.5 -3.5h1v-1v-1
q1 0 1 -0.5t0.5 -1t0.5 -1v-1.5v0q0 -2 -2 -3t-3 -1q-7 1 -13 2q-22 6 -39 18q-13 -2 -26 -2q-39 0 -67 19q8 -1 13 -1q23 0 44 6.5t37 18.5q18 13 27.5 30.5t9.5 36.5q0 11 -3 21q18 -10 29 -25t11 -33q0 -17 -10 -32t-28 -25z" />
    </font>
</defs>
</svg>
